BitTorrentTracker PerecTracker.org
BitTorrentTracker PerecTracker.org
    
Регистрация  ·  Вход
 
 · 
Забыли пароль?

  • [ATV3] Про Любовь (Анна Меликян) [2015, Россия, Комедия, WEB-DL, HD (1080p)] Original

    Ответить на тему
     
    Автор Сообщение

    Flirldrerve

    Создавать темы 07-Янв-2016 08:44

           

    [Цитировать]

    Про Любовь
    «All you need is love»
    6.797 / 10 7.10 / 10
    -Год выпуска: 2015
    Страна: Россия
    Жанр: Комедия
    Продолжительность: 01:55:15
    Перевод: Не требуется
    Оригинальная аудиодорожка: Есть
    Cубтитры: Нет
    Режиссёр: Анна Меликян
    Сценарий: Андрей Мигачев, Анна Меликян, Влад Малахов
    Продюсер: Анна Меликян, Валерия Козловская
    Оператор: Федор Лясс
    Композитор: Дмитрий Емельянов
    Художник: Василий Распопов
    В ролях: Рената Литвинова, Михаил Ефремов, Мария Шалаева, Василий Ракша, Юлия Снигирь, Владимир Машков, Алексей Филимонов, Евгений Цыганов, Александра Бортич, Мария Данилюк
    Сборы в России: $736 980
    Мировая премьера: 10 декабря 2015
    Премьера (РФ): 10 декабря 2015, «A Company», «Двадцатый Век Фокс СНГ», «Нон-Стоп Продакшн
    Описание: - Что такое любовь? На этот вопрос пытаются ответить герои фильма. Вереница самых разных персонажей и историй переплетаются в этом фильме. Маленькие истории о самом разном и все о любви: молодая пара, предпочитающая жить в образах японских аниме-героев; секретарша, получившая непристойное предложение от своего босса; японка, приехавшая в Москву в поисках русского мужчины; художник-граффити в поисках красоты; бывшая жена, нанятая своим мужем для необычного задания и многое другое…
    Качество: WEB-DL1080p (BlueBird)
    Тип: HD (1080p)
    Контейнер: avc1
    Видео: H.264, 1920x804, 2.40:1, 4 370 Kbps, 24.000 fps
    Аудио 1: Русский/Оригинальная дорожка , AAC / 2.0 / 157 Kbps / 48.0 KHz
    Аудио 2: Русский/Оригинальная дорожка , AC-3 / 5.1 / 384 Kbps / 48.0 KHz
    -

    iTunes Meta Tags

    Sort Name: Про Любовь
    XID: Apple:vendor_id:2015-841770
    contentID: 1067441067
    Copyright: © 2015 A Company
    Screenwriters: Андрей Мигачев, Анна Меликян, Влад Малахов
    Producers: Анна Меликян, Валерия Козловская
    Director: Анна Меликян
    Cast: Рената Литвинова, Михаил Ефремов, Мария Шалаева, Василий Ракша, Юлия Снигирь, Владимир Машков, Алексей Филимонов, Евгений Цыганов, Александра Бортич, Мария Данилюк
    Studio: Кинокомпания "Магнум"
    Rating: 135
    Long Description: - Что такое любовь? На этот вопрос пытаются ответить герои фильма. Вереница самых разных персонажей и историй переплетаются в этом фильме. Маленькие истории о самом разном и все о любви: молодая пара, предпочитающая жить в образах японских аниме-героев; секретарша, получившая непристойное предложение от своего босса; японка, приехавшая в Москву в поисках русского мужчины; художник-граффити в поисках красоты; бывшая жена, нанятая своим мужем для необычного задания и многое другое...
    Description: - Что такое любовь? На этот вопрос пытаются ответить герои фильма. Вереница самых разных персонажей и историй переплетаются в этом фильме. Маленькие истории о самом разном и все о любви: молодая пара, предпочитающая жить в образах японских аниме-героев; секретарша, получившая непристойное предложение от своего босса; японка, приехавшая в Москву в поисках русского мужчины; художник-граффити в поисках красоты; бывшая жена, нанятая своим мужем для необычного задания и многое другое...
    Release Date: 2015-12-10T08:00:00Z
    Genre: Русское кино
    Artist: Анна Меликян
    Name: Про Любовь

    MediaInfo

    Genre : Русское кино
    ContentType : Short Film
    Description : - Что такое любовь? На этот вопрос пытаются ответить герои фильма. Вереница самых разных персонажей и историй переплетаются в этом фильме. Маленькие истории о самом разном и все о любви: молодая пара, предпочитающая жить в образах японских аниме-героев; секретарша, получившая непристойное предложение от своего босса; японка, приехавшая в Москву в поисках русского мужчины; художник-граффити в поисках красоты; бывшая жена, нанятая своим мужем для необычного задания и многое другое...
    Recorded date : UTC 2015-12-10 08:00:00
    Encoded date : UTC 2016-01-06 23:23:57
    Tagged date : UTC 2016-01-06 23:25:57
    Copyright : © 2015 A Company
    Cover : Yes
    Rating : None
    Title/Sort : Про Любовь
    LongDescription : - Что такое любовь? На этот вопрос пытаются ответить герои фильма. Вереница самых разных персонажей и историй переплетаются в этом фильме. Маленькие истории о самом разном и все о любви: молодая пара, предпочитающая жить в образах японских аниме-героев; секретарша, получившая непристойное предложение от своего босса; японка, приехавшая в Москву в поисках русского мужчины; художник-граффити в поисках красоты; бывшая жена, нанятая своим мужем для необычного задания и многое другое...
    AppleStoreCatalogID : 1067441067
    Vendor : Apple:vendor_id:2015-841770
    ContentRating : ru-movie|16+|375|
    Video #1
    ID : 1
    Format : AVC
    Format/Info : Advanced Video Codec
    Format profile : High@L4
    Format settings, CABAC : Yes
    Format settings, ReFrames : 5 frames
    Codec ID : avc1
    Codec ID/Info : Advanced Video Coding
    Duration : 1h 55mn
    Bit rate : 4 370 Kbps
    Width : 1 920 pixels
    Height : 804 pixels
    Display aspect ratio : 2.40:1
    Frame rate mode : Variable
    Frame rate : 24.000 fps
    Minimum frame rate : 23.810 fps
    Maximum frame rate : 24.390 fps
    Color space : YUV
    Chroma subsampling : 4:2:0
    Bit depth : 8 bits
    Scan type : Progressive
    Bits/(Pixel*Frame) : 0.118
    Stream size : 3.52 GiB (89%)
    Title : Main Program
    Language : Russian
    Encoded date : UTC 2016-01-06 23:23:57
    Tagged date : UTC 2016-01-06 23:25:12
    Color range : Limited
    Color primaries : BT.709
    Transfer characteristics : BT.709
    Matrix coefficients : BT.709
    Menus : 4,5
    Video #2
    ID : 5
    Format : JPEG
    Codec ID : jpeg
    Duration : 1h 55mn
    Bit rate mode : Variable
    Bit rate : 868 bps
    Width : 640 pixels
    Height : 268 pixels
    Display aspect ratio : 2.40:1
    Frame rate mode : Variable
    Frame rate : 0.003 fps
    Minimum frame rate : 0.002 fps
    Maximum frame rate : 0.003 fps
    Color space : YUV
    Chroma subsampling : 4:2:0
    Bit depth : 8 bits
    Compression mode : Lossy
    Bits/(Pixel*Frame) : 1.687
    Stream size : 671 KiB (0%)
    Title : Chapter Images
    Language : Russian
    Default : No
    Encoded date : UTC 2016-01-06 23:25:19
    Tagged date : UTC 2016-01-06 23:25:19
    Menu For : 1
    Audio #1
    ID : 2
    Format : AAC
    Format/Info : Advanced Audio Codec
    Format profile : LC
    Codec ID : 40
    Duration : 1h 55mn
    Bit rate mode : Variable
    Bit rate : 157 Kbps
    Maximum bit rate : 246 Kbps
    Channel(s) : 2 channels
    Channel positions : Front: L R
    Sampling rate : 48.0 KHz
    Frame rate : 46.875 fps (1024 spf)
    Compression mode : Lossy
    Stream size : 130 MiB (3%)
    Title : Russian Stereo
    Language : Russian
    Default : Yes
    Alternate group : 1
    Encoded date : UTC 2016-01-06 23:23:57
    Tagged date : UTC 2016-01-06 23:24:02
    Fallback From : 3
    Audio #2
    ID : 3
    Format : AC-3
    Format/Info : Audio Coding 3
    Mode extension : CM (complete main)
    Format settings, Endianness : Big
    Codec ID : ac-3
    Duration : 1h 55mn
    Bit rate mode : Constant
    Bit rate : 384 Kbps
    Channel(s) : 6 channels
    Channel positions : Front: L C R, Side: L R, LFE
    Sampling rate : 48.0 KHz
    Frame rate : 31.250 fps (1536 spf)
    Bit depth : 16 bits
    Compression mode : Lossy
    Stream size : 317 MiB (8%)
    Title : Russian DD 5.1
    Language : Russian
    Default : Inherited From: 2
    Alternate group : 1
    Encoded date : UTC 2016-01-06 23:23:57
    Tagged date : UTC 2016-01-06 23:24:01
    Fallback To : 2
    Menu #1
    00:00:00.000 : Chapter 01
    00:05:38.000 : Chapter 02
    00:11:10.000 : Chapter 03
    00:16:51.000 : Chapter 04
    00:23:34.000 : Chapter 05
    00:29:21.000 : Chapter 06
    00:36:09.000 : Chapter 07
    00:41:25.000 : Chapter 08
    00:47:23.000 : Chapter 09
    00:54:03.000 : Chapter 10
    00:59:51.000 : Chapter 11
    01:04:52.000 : Chapter 12
    01:10:14.000 : Chapter 13
    01:16:19.000 : Chapter 14
    01:21:49.000 : Chapter 15
    01:27:57.000 : Chapter 16
    01:33:51.000 : Chapter 17
    01:39:34.000 : Chapter 18
    01:45:35.000 : Chapter 19
    Menu #2
    ID : 4
    Codec ID : text
    Duration : 1h 55mn
    Language : Russian
    Encoded date : UTC 2016-01-06 23:25:13
    Tagged date : UTC 2016-01-06 23:25:13
    Bit rate mode : CBR
    Menu For : 1
    00:00:00.000 : Chapter 01
    00:05:38.000 : Chapter 02
    00:11:10.000 : Chapter 03
    00:16:51.000 : Chapter 04
    00:23:34.000 : Chapter 05
    00:29:21.000 : Chapter 06
    00:36:09.000 : Chapter 07
    00:41:25.000 : Chapter 08
    00:47:23.000 : Chapter 09
    00:54:03.000 : Chapter 10
    00:59:51.000 : Chapter 11
    01:04:52.000 : Chapter 12
    01:10:14.000 : Chapter 13
    01:16:19.000 : Chapter 14
    01:21:49.000 : Chapter 15
    01:27:57.000 : Chapter 16
    01:33:51.000 : Chapter 17
    01:39:34.000 : Chapter 18a
    01:45:35.000 : Chapter 19

    Скриншоты

    -

    Релиз подготовлен для просмотра на Apple TV, iPad, iPhone, iPod Touch.
    Для просмотра данного релиза на компьютере с ОС Windows рекомендуется использовать VLC media player
    Скачать .torrent

    Скачать торрент-файл бесплатно и на максимальной скорости!

    Как скачивать? · Что такое торрент? · Рейтинг и ограничения

    !ВНИМАНИЕ!
    Сайт не распространяет и не хранит электронные версии произведений, а занимается лишь лишь предоставлением доступа к создаваемому пользователями каталогу ссылок на торрент-файлы, которые содержат только списки хеш-сумм, убедительная просьба с жалобами обращаться напрямую к пользователю. Файлы для обмена на трекере предоставлены пользователями сайта, и администрация не несёт ответственности за их содержание. Просьба не заливать файлы, защищенные авторскими правами, а также файлы нелегального содержания!


    _________________
    [Профиль] [ЛС]
    Показать сообщения:    
    Ответить на тему

    Текущее время: Сегодня, в 22:22

    Часовой пояс: GMT + 2



    Вы не можете начинать темы
    Вы не можете отвечать на сообщения
    Вы не можете редактировать свои сообщения
    Вы не можете удалять свои сообщения
    Вы не можете голосовать в опросах
    Вы не можете прикреплять файлы к сообщениям
    Вы не можете скачивать файлы