BitTorrentTracker PerecTracker.org
BitTorrentTracker PerecTracker.org
    
Регистрация  ·  Вход
 
 · 
Забыли пароль?

  • [ATV 3] Южный парк / South Park / Season: 16 / Серии: 1-14 (14) (Мэтт Стоун, Трей Паркер) [2012, США, комедия, мульфильм, WEB-DL, HD (1080p)] DVO Paramount Comedy + DVO VO-Production + MVO Кубик в кубе + VO Nice-Media + Original + sub (rus, eng)

    Ответить на тему
     
    Автор Сообщение

    Light

    Создавать темы 07-Янв-2016 04:26

           

    [Цитировать]

    Южный парк / South Park / Сезон 16
    Год выпуска: 2012
    Страна: США
    Жанр: комедия, мульфильм
    Продолжительность: 00:22:00
    Рейтинг КиноПоиск: 7,972
    Перевод: Профессиональный (двухголосый закадровый) Paramount Comedy
    Перевод 2: Профессиональный (многоголосый закадровый) VO-Production
    Перевод 3: Профессиональный (двухголосый закадровый) Кубик в кубе
    Перевод 4: Одноголосый закадровый Nice-Media
    Оригинальная аудиодорожка: есть
    Cубтитры: русские и английские
    Режиссёр: Мэтт Стоун, Трей Паркер
    Продюсер: Трей Паркер, Мэтт Стоун
    В ролях: Трей Паркер, Мэтт Стоун
    Описание:
    Американский мультсериал, который создают Трей Паркер и Мэтт Стоун. Второй по длительности анимационный сериал в истории американского телевидения после сериала «Симпсоны». Иногда название употребляется в непереведённом виде как «Саут-Парк» или «Саус-Парк». Выпускается кабельным телеканалом Comedy Central с 1997 года. Основу сюжета составляют приключения четырёх мальчиков и их друзей, живущих в маленьком городке Саут-Парк, штат Колорадо. Сериал высмеивает недостатки американской культуры и текущие мировые события, а также подвергает критике множество глубоких убеждений и табу посредством пародии и чёрного юмора. «Южный парк» выходит поздно вечером и позиционируется как мультфильм для взрослых.
    Шоу славится своим освещением текущих мировых событий. Работа над каждой серией ведётся в два этапа: на первом авторы придумывают общую концепцию и сюжет, а на втором — менее чем за неделю до премьерного показа — дорабатывают их деталями, что позволяет быстро реагировать на новости.
    На настоящий момент в эфир вышло уже 17 сезонов мультсериала. Начиная с восьмого, все последующие сезоны шоу выходят в два этапа: половина весной и половина осенью, с перерывом на лето. На данный момент контракт создателей сериала продлён до 2016 года, то есть после 15-го выйдет ещё как минимум два сезона, на которые был изначально продлён сериал, а потом ещё три сезона, на которые сериал был продлён в ноябре 2011 года.
    Качество исходника: WEB-DL 1080p http://perectracker.org/viewtopic.php?t=4275162
    Качество: WEB-DL
    Тип: HD (1080p)
    Контейнер: M4V
    Видео: AVC, 1920х1080, 16:9, 5128 kbps, 23.976 fps
    Аудио №1: Русский/Paramount Comedy, AAC, 2 channels, 48.0 KHz, Variable 140-215 kbps
    Аудио №2: Русский/VO-Production, AAC, 2 channels, 48.0 KHz, Variable 140-215 kbps
    Аудио №3: Русский/Кубик в кубе, AAC, 2 channels, 48.0 KHz, Variable 140-215 kbps
    Аудио №4: Русский/Nice-Media, AAC, 2 channels, 48.0 KHz, Variable 140-215 kbps
    Аудио №5: Английский/Original, AAC, 2 channels, 48.0 KHz, Variable 140-215 kbps

    MediaInfo

    GeneralComplete name : F:\Apple TV video\Сериаллы\South Park\Season 16\12. A Nightmare On FaceTime.m4vFormat : MPEG-4Codec ID : M4VFile size : 906 MiBDuration : 22mn 11sOverall bit rate mode : VariableOverall bit rate : 5 712 KbpsCollection : South ParkSeason : 16Part : 12Part/Position : 16Track name : Кошмар на ФейстаймеTrack name/Position : 12Track name/Total : 14ContentType : TV ShowDescription : Четверка друзей планирует на Хэллоуин выиграть конкурс костюмов в образе Мстителей. Однако в последний момент Рэнди Марш не отпускает своего сына на праздник, и Стэн вынужден помогать отцу в его предпринимательской авантюре.Encoded date : UTC 2014-08-09 10:05:38Tagged date : UTC 2014-08-09 10:05:59Writing application : MkvToMp4 [www.mkvtomp4.ru] version: 0.224 (x64)Cover : YesTitle/Sort : South Park
    VideoID : 1Format : AVCFormat/Info : Advanced Video CodecFormat profile : High@L4.0Format settings, CABAC : YesFormat settings, ReFrames : 4 framesCodec ID : avc1Codec ID/Info : Advanced Video CodingDuration : 22mn 10sBit rate : 5 018 KbpsMaximum bit rate : 12.8 MbpsWidth : 1 916 pixelsHeight : 1 076 pixelsDisplay aspect ratio : 16:9Frame rate mode : ConstantFrame rate : 23.976 fpsColor space : YUVChroma subsampling : 4:2:0Bit depth : 8 bitsScan type : ProgressiveBits/(Pixel*Frame) : 0.102Stream size : 796 MiB (88%)Language : EnglishEncoded date : UTC 2014-08-09 10:05:38Tagged date : UTC 2014-08-09 10:05:46Color primaries : BT.709Transfer characteristics : BT.709Matrix coefficients : BT.709
    Audio #1ID : 2Format : AACFormat/Info : Advanced Audio CodecFormat profile : LCCodec ID : 40Duration : 22mn 10sBit rate mode : VariableBit rate : 140 KbpsMaximum bit rate : 214 KbpsChannel(s) : 2 channelsChannel positions : Front: L RSampling rate : 48.0 KHzCompression mode : LossyStream size : 22.2 MiB (2%)Title : DVO [Paramount Comedy]Language : RussianEncoded date : UTC 2014-08-09 10:03:12Tagged date : UTC 2014-08-09 10:05:46
    Audio #2ID : 3Format : AACFormat/Info : Advanced Audio CodecFormat profile : LCCodec ID : 40Duration : 22mn 11sBit rate mode : VariableBit rate : 132 KbpsMaximum bit rate : 203 KbpsChannel(s) : 2 channelsChannel positions : Front: L RSampling rate : 48.0 KHzCompression mode : LossyStream size : 21.3 MiB (2%)Title : MVO [VO_Production]Language : RussianEncoded date : UTC 2014-08-09 10:03:51Tagged date : UTC 2014-08-09 10:05:46
    Audio #3ID : 4Format : AACFormat/Info : Advanced Audio CodecFormat profile : LCCodec ID : 40Duration : 22mn 11sBit rate mode : VariableBit rate : 107 KbpsMaximum bit rate : 172 KbpsChannel(s) : 2 channelsChannel positions : Front: L RSampling rate : 48.0 KHzCompression mode : LossyStream size : 17.0 MiB (2%)Title : DVO [Kubik v Kube]Language : RussianEncoded date : UTC 2014-08-09 10:04:31Tagged date : UTC 2014-08-09 10:05:46
    Audio #4ID : 5Format : AACFormat/Info : Advanced Audio CodecFormat profile : LCCodec ID : 40Duration : 22mn 11sBit rate mode : VariableBit rate : 164 KbpsMaximum bit rate : 233 KbpsChannel(s) : 2 channelsChannel positions : Front: L RSampling rate : 48.0 KHzCompression mode : LossyStream size : 26.0 MiB (3%)Title : VO [L0cDoG]Language : RussianEncoded date : UTC 2014-08-09 10:05:09Tagged date : UTC 2014-08-09 10:05:46
    Audio #5ID : 6Format : AACFormat/Info : Advanced Audio CodecFormat profile : LCCodec ID : 40Duration : 22mn 10sBit rate mode : VariableBit rate : 126 KbpsMaximum bit rate : 202 KbpsChannel(s) : 2 channelsChannel positions : Front: L RSampling rate : 48.0 KHzCompression mode : LossyStream size : 20.1 MiB (2%)Language : EnglishEncoded date : UTC 2014-08-09 10:05:45Tagged date : UTC 2014-08-09 10:05:46
    Text #1ID : 7Format : Timed TextMuxing mode : sbtlCodec ID : tx3gDuration : 21mn 54sBit rate mode : VariableBit rate : 149 bpsStream size : 24.0 KiB (0%)Title : [yazzzzzva]Language : RussianEncoded date : UTC 2014-08-09 10:05:46Tagged date : UTC 2014-08-09 10:05:46
    Text #2ID : 8Format : Timed TextMuxing mode : sbtlCodec ID : tx3gDuration : 21mn 36sBit rate mode : VariableBit rate : 95 bpsStream size : 15.1 KiB (0%)Language : EnglishEncoded date : UTC 2014-08-09 10:05:46Tagged date : UTC 2014-08-09 10:05:46

    Скриншоты

    Скачать .torrent

    Скачать торрент-файл бесплатно и на максимальной скорости!

    Как скачивать? · Что такое торрент? · Рейтинг и ограничения

    !ВНИМАНИЕ!
    Сайт не распространяет и не хранит электронные версии произведений, а занимается лишь лишь предоставлением доступа к создаваемому пользователями каталогу ссылок на торрент-файлы, которые содержат только списки хеш-сумм, убедительная просьба с жалобами обращаться напрямую к пользователю. Файлы для обмена на трекере предоставлены пользователями сайта, и администрация не несёт ответственности за их содержание. Просьба не заливать файлы, защищенные авторскими правами, а также файлы нелегального содержания!


    _________________
    [Профиль] [ЛС]
    Показать сообщения:    
    Ответить на тему

    Текущее время: Сегодня, в 06:20

    Часовой пояс: GMT + 2



    Вы не можете начинать темы
    Вы не можете отвечать на сообщения
    Вы не можете редактировать свои сообщения
    Вы не можете удалять свои сообщения
    Вы не можете голосовать в опросах
    Вы не можете прикреплять файлы к сообщениям
    Вы не можете скачивать файлы