BitTorrentTracker PerecTracker.org
BitTorrentTracker PerecTracker.org
    
Регистрация  ·  Вход
 
 · 
Забыли пароль?

  • [ATV3] Проект Альфа / Appleseed Alpha (Синдзи Арамаки / Shinji Aramaki ) [2014, США, Мультфильм, боевик, приключения, фантастика, BDRip, HD (1080p)] MVO + Original + sub (rus, eng)

    Ответить на тему
     
    Автор Сообщение

    Light

    Создавать темы 07-Янв-2016 04:26

           

    [Цитировать]

    Проект Альфа / Appleseed Alpha
    -
    6.873 / 10 6.70 / 10
    -Год выпуска: 2014
    Страна: США
    Жанр: Мультфильм, боевик, приключения, фантастика
    Продолжительность: 01:33:15
    Перевод: Профессиональный (многоголосый закадровый) (iTunes Russia)
    Оригинальная аудиодорожка: Есть
    Cубтитры: Русские, Английские
    Режиссёр: Синдзи Арамаки
    Сценарий: Марианн Кравчик, Масамунэ Сиро
    Продюсер: Джозеф Чоу, Джои Гобео, Эйчи Камагата
    Композитор: Тецуя Такахаси
    В ролях: Люси Кристиан, Дэвид Матранга, Элизабет Банч, Вендел Кэлверт, Адам Гиббс, Крис Хатчинсон, Брина Паленсиа, Josh Sheltz
    Мировая премьера: 22 июля 2014
    Описание: На основе комиксов, от создателя Призрак в доспехах, молодой солдат Дюнан и киборг Бриарей, пережив третью мировую войну, путешествуют по апокалиптическому Нью-Йорку, в поисках легендарного города Олимпа, будущего оплота человечества.-Качество исходника: BDRemux
    Качество: BDRip
    Тип: HD (1080p)
    Контейнер: M4V
    Видео: H.264, 1920x1080, 16:9, 6 500 Kbps, 23.976 fps
    Аудио 1: Русский/Профессиональный (многоголосый закадровый) (iTunes Russia), AAC / 2.0 / 157 Kbps / 48.0 KHz
    Аудио 2: Английский/Оригинальная дорожка , AAC / 2.0 / 158 Kbps / 48.0 KHz
    Аудио 3: Русский/Профессиональный (многоголосый закадровый) (iTunes Russia), AC-3 / 5.1 / 384 Kbps / 48.0 KHz
    Аудио 4: Английский/Оригинальная дорожка , AC-3 / 5.1 / 640 Kbps / 48.0 KHz
    Субтитры 1: Русские полные
    Субтитры 2: Английские полные
    -

    iTunes Meta Tags

    Sort Name: Appleseed: Alpha
    XID: Apple:vendor_id:2014-837990
    contentID: 886930644
    Screenwriters: Марианн Кравчик, Масамунэ Сиро
    Producers: Джозеф Чоу, Джои Гобео, Эйчи Камагата
    Director: Синдзи Арамаки
    Cast: Люси Кристиан, Дэвид Матранга, Элизабет Банч, Вендел Кэлверт, Адам Гиббс, Крис Хатчинсон, Брина Паленсиа
    Studio: Solo Digital Arts, 6 Films, Lucent Pictures Entertainment
    Rating: 10
    Long Description: На основе комиксов, от создателя Призрак в доспехах, молодой солдат Дюнан и киборг Бриарей, пережив третью мировую войну, путешествуют по апокалиптическому Нью-Йорку, в поисках легендарного города Олимпа, будущего оплота человечества.
    Description: Действие посвящено боевой биографии Дюнан и Бриарея до попадания в Олимп.
    Release Date: 2014-07-22T08:00:00Z
    Genre: Action & Adventure
    Artist: Shinji Aramaki
    Name: Appleseed: Alpha

    MediaInfo

    General
    Complete name                            : /Users/imac/HandBrake/Appleseed- Alpha (1080p HD).m4v
    Format                                   : MPEG-4
    Codec ID                                 : M4V
    File size                                : 5.11 GiB
    Duration                                 : 1h 33mn
    Overall bit rate mode                    : Variable
    Overall bit rate                         : 7 850 Kbps
    Movie name                               : Appleseed: Alpha
    Performer                                : Shinji Aramaki
    Genre                                    : Action & Adventure
    Recorded date                            : UTC 2014-07-22 08:00:00
    Encoded date                             : UTC 2014-09-03 08:09:44
    Tagged date                              : UTC 2014-09-03 08:15:58
    Cover                                    : Yes
    sonm                                     : Appleseed: Alpha
    desc                                     : Действие посвящено боевой биографии Дюнан и Бриарея до попадания в Олимп.
    ldes                                     : На основе комиксов, от создателя Призрак в доспехах, молодой солдат Дюнан и киборг Бриарей, пережив третью мировую войну, путешествуют по апокалиптическому Нью-Йорку, в поисках легендарного города Олимпа, будущего оплота человечества.
    hdvd                                     : 2
    stik                                     : 9
    rtng                                     : 0
    cnID                                     : 886930644
    xid                                      : Apple:vendor_id:2014-837990
    iTunEXTC                                 : mpaa|PG-13|300|
    iTunMOVI                                 : <?xml version=\"1.0\" encoding=\"UTF-8\"?> / <!DOCTYPE plist PUBLIC \"-//Apple//DTD PLIST 1.0//EN\" \"http://anonym.to/?http://www.apple.com/DTDs/PropertyList-1.0.dtd\"> / <plist version=\"1.0\"> / <dict> /  <key>cast</key> /  <array> /   <dict> /    <key>name</key> /    <string>Люси Кристиан</string> /   </dict> /   <dict> /    <key>name</key> /    <string>Дэвид Матранга</string> /   </dict> /   <dict> /    <key>name</key> /    <string>Элизабет Банч</string> /   </dict> /   <dict> /    <key>name</key> /    <string>Вендел Кэлверт</string> /   </dict> /   <dict> /    <key>name</key> /    <string>Адам Гиббс</string> /   </dict> /   <dict> /    <key>name</key> /    <string>Крис Хатчинсон</string> /   </dict> /   <dict> /    <key>name</key> /    <string>Брина Паленсиа</string> /   </dict> /  </array> /  <key>directors</key> /  <array> /   <dict> /    <key>name</key> /    <string>Синдзи Арамаки</string> /   </dict> /  </array> /  <key>producers</key> /  <array> /   <dict> /    <key>name</key> /    <string>Джозеф Чоу</string> /   </dict> /   <dict> /    <key>name</key> /    <string>Джои Гобео</string> /   </dict> /   <dict> /    <key>name</key> /    <string>Эйчи Камагата</string> /   </dict> /  </array> /  <key>screenwriters</key> /  <array> /   <dict> /    <key>name</key> /    <string>Марианн Кравчик</string> /   </dict> /   <dict> /    <key>name</key> /    <string>Масамунэ Сиро</string> /   </dict> /  </array> /  <key>studio</key> /  <string>Solo Digital Arts, 6 Films, Lucent Pictures Entertainment</string> / </dict> / </plist>
    Video #1
    ID                                       : 1
    Format                                   : AVC
    Format/Info                              : Advanced Video Codec
    Format profile                           : High@L4.0
    Format settings, CABAC                   : Yes
    Format settings, ReFrames                : 4 frames
    Codec ID                                 : avc1
    Codec ID/Info                            : Advanced Video Coding
    Duration                                 : 1h 33mn
    Bit rate mode                            : Variable
    Bit rate                                 : 6 500 Kbps
    Width                                    : 1 920 pixels
    Height                                   : 1 080 pixels
    Display aspect ratio                     : 16:9
    Frame rate mode                          : Variable
    Frame rate                               : 23.976 fps
    Minimum frame rate                       : 23.810 fps
    Maximum frame rate                       : 24.272 fps
    Color space                              : YUV
    Chroma subsampling                       : 4:2:0
    Bit depth                                : 8 bits
    Scan type                                : Progressive
    Bits/(Pixel*Frame)                       : 0.131
    Stream size                              : 4.23 GiB (83%)
    Writing library                          : x264 core 130 r2273 b3065e6
    Encoding settings                        : cabac=1 / ref=4 / deblock=1:0:0 / analyse=0x3:0x133 / me=umh / subme=10 / psy=1 / psy_rd=1.00:0.00 / mixed_ref=1 / me_range=32 / chroma_me=1 / trellis=2 / 8x8dct=1 / cqm=0 / deadzone=21,11 / fast_pskip=1 / chroma_qp_offset=-2 / threads=12 / lookahead_threads=1 / sliced_threads=0 / nr=0 / decimate=1 / interlaced=0 / bluray_compat=0 / constrained_intra=0 / bframes=4 / b_pyramid=2 / b_adapt=2 / b_bias=0 / direct=3 / weightb=1 / open_gop=0 / weightp=2 / keyint=240 / keyint_min=24 / scenecut=40 / intra_refresh=0 / rc_lookahead=40 / rc=2pass / mbtree=0 / bitrate=6500 / ratetol=1.0 / qcomp=0.60 / qpmin=0 / qpmax=69 / qpstep=4 / cplxblur=20.0 / qblur=0.5 / vbv_maxrate=25000 / vbv_bufsize=25000 / nal_hrd=none / ip_ratio=1.40 / pb_ratio=1.30 / aq=1:1.00
    Language                                 : English
    Encoded date                             : UTC 2014-09-03 08:09:44
    Tagged date                              : UTC 2014-09-03 08:13:50
    Color primaries                          : BT.709-5, BT.1361, IEC 61966-2-4, SMPTE RP177
    Transfer characteristics                 : BT.709-5, BT.1361
    Matrix coefficients                      : BT.709-5, BT.1361, IEC 61966-2-4 709, SMPTE RP177
    Video #2
    ID                                       : 8
    Format                                   : JPEG
    Codec ID                                 : jpeg
    Duration                                 : 1h 33mn
    Bit rate mode                            : Variable
    Bit rate                                 : 929 bps
    Width                                    : 640 pixels
    Height                                   : 360 pixels
    Display aspect ratio                     : 16:9
    Frame rate mode                          : Variable
    Frame rate                               : 0.003 fps
    Minimum frame rate                       : 0.002 fps
    Maximum frame rate                       : 0.004 fps
    Color space                              : YUV
    Chroma subsampling                       : 4:2:0
    Bit depth                                : 8 bits
    Compression mode                         : Lossy
    Bits/(Pixel*Frame)                       : 1.344
    Stream size                              : 605 KiB (0%)
    Language                                 : English
    Encoded date                             : UTC 2014-09-03 08:09:44
    Tagged date                              : UTC 2014-09-03 08:11:17
    Audio #1
    ID                                       : 2
    Format                                   : AAC
    Format/Info                              : Advanced Audio Codec
    Format profile                           : LC
    Codec ID                                 : 40
    Duration                                 : 1h 33mn
    Bit rate mode                            : Variable
    Bit rate                                 : 157 Kbps
    Maximum bit rate                         : 247 Kbps
    Channel(s)                               : 2 channels
    Channel positions                        : Front: L R
    Sampling rate                            : 48.0 KHz
    Compression mode                         : Lossy
    Stream size                              : 105 MiB (2%)
    Language                                 : Russian
    Encoded date                             : UTC 2014-09-03 08:09:44
    Tagged date                              : UTC 2014-09-03 08:12:40
    Audio #2
    ID                                       : 3
    Format                                   : AAC
    Format/Info                              : Advanced Audio Codec
    Format profile                           : LC
    Codec ID                                 : 40
    Duration                                 : 1h 33mn
    Bit rate mode                            : Variable
    Bit rate                                 : 158 Kbps
    Maximum bit rate                         : 274 Kbps
    Channel(s)                               : 2 channels
    Channel positions                        : Front: L R
    Sampling rate                            : 48.0 KHz
    Compression mode                         : Lossy
    Stream size                              : 105 MiB (2%)
    Language                                 : English
    Encoded date                             : UTC 2014-09-03 08:09:44
    Tagged date                              : UTC 2014-09-03 08:12:44
    Audio #3
    ID                                       : 4
    Format                                   : AC-3
    Format/Info                              : Audio Coding 3
    Mode extension                           : CM (complete main)
    Format settings, Endianness              : Big
    Codec ID                                 : ac-3
    Duration                                 : 1h 33mn
    Bit rate mode                            : Constant
    Bit rate                                 : 384 Kbps
    Channel(s)                               : 6 channels
    Channel positions                        : Front: L C R, Side: L R, LFE
    Sampling rate                            : 48.0 KHz
    Bit depth                                : 16 bits
    Compression mode                         : Lossy
    Stream size                              : 256 MiB (5%)
    Language                                 : Russian
    Encoded date                             : UTC 2014-09-03 08:09:44
    Tagged date                              : UTC 2014-09-03 08:10:15
    Audio #4
    ID                                       : 5
    Format                                   : AC-3
    Format/Info                              : Audio Coding 3
    Mode extension                           : CM (complete main)
    Format settings, Endianness              : Big
    Codec ID                                 : ac-3
    Duration                                 : 1h 33mn
    Bit rate mode                            : Constant
    Bit rate                                 : 640 Kbps
    Channel(s)                               : 6 channels
    Channel positions                        : Front: L C R, Side: L R, LFE
    Sampling rate                            : 48.0 KHz
    Bit depth                                : 16 bits
    Compression mode                         : Lossy
    Stream size                              : 427 MiB (8%)
    Language                                 : English
    Encoded date                             : UTC 2014-09-03 08:09:44
    Tagged date                              : UTC 2014-09-03 08:10:31
    Text #1
    ID                                       : 6
    Format                                   : Timed text
    Muxing mode                              : sbtl
    Codec ID                                 : tx3g
    Duration                                 : 1h 33mn
    Bit rate mode                            : Variable
    Bit rate                                 : 82 bps
    Stream size                              : 56.0 KiB (0%)
    Language                                 : Russian
    Encoded date                             : UTC 2014-09-03 08:09:44
    Tagged date                              : UTC 2014-09-03 08:11:27
    Text #2
    ID                                       : 7
    Format                                   : Timed text
    Muxing mode                              : sbtl
    Codec ID                                 : tx3g
    Duration                                 : 1h 33mn
    Bit rate mode                            : Variable
    Bit rate                                 : 52 bps
    Stream size                              : 35.2 KiB (0%)
    Language                                 : English
    Encoded date                             : UTC 2014-09-03 08:09:44
    Tagged date                              : UTC 2014-09-03 08:11:27
    Text #3
    ID                                       : 9
    Format                                   : Apple text
    Codec ID                                 : text
    Duration                                 : 1h 33mn
    Bit rate mode                            : Variable
    Bit rate                                 : 1 bps
    Stream size                              : 375 Bytes (0%)
    Language                                 : English
    Encoded date                             : UTC 2014-09-03 08:13:50
    Tagged date                              : UTC 2014-09-03 08:13:50
    Menu
    00:00:00.000                             : Chapter 1
    00:05:09.809                             : Chapter 2
    00:09:07.796                             : Chapter 3
    00:14:45.967                             : Chapter 4
    00:19:39.260                             : Chapter 5
    00:29:15.753                             : Chapter 6
    00:33:53.989                             : Chapter 7
    00:38:17.419                             : Chapter 8
    00:44:42.929                             : Chapter 9
    00:51:24.080                             : Chapter 10
    00:56:58.080                             : Chapter 11
    01:02:53.435                             : Chapter 12
    01:08:48.498                             : Chapter 13
    01:13:17.517                             : Chapter 14
    01:19:03.029                             : Chapter 15
    01:24:49.333                             : Chapter 16

    x264 лог

    x264 [info]: frame I:1091  Avg QP:15.24  size:200151  PSNR Mean Y:48.80 U:50.74 V:51.34 Avg:49.36 Global:48.72
    x264 [info]: frame P:42066 Avg QP:17.85  size: 59195  PSNR Mean Y:46.89 U:49.61 V:50.47 Avg:47.61 Global:46.77
    x264 [info]: frame B:91003 Avg QP:20.22  size: 20201  PSNR Mean Y:46.10 U:49.18 V:50.03 Avg:46.90 Global:46.17
    x264 [info]: consecutive B-frames:  6.8%  8.5%  9.3% 58.8% 16.6%
    x264 [info]: mb I  I16..4:  5.3% 84.4% 10.2%
    x264 [info]: mb P  I16..4:  2.3% 10.3%  1.0%  P16..4: 45.3% 19.5% 11.9%  0.2%  0.0%    skip: 9.5%
    x264 [info]: mb B  I16..4:  0.2%  0.6%  0.1%  B16..8: 51.1%  8.1%  1.6%  direct: 3.3%  skip:35.0%  L0:46.5% L1:48.4% BI: 5.1%
    x264 [info]: 8x8 transform intra:76.7% inter:66.5%
    x264 [info]: direct mvs  spatial:96.8% temporal:3.2%
    x264 [info]: coded y,uvDC,uvAC intra: 70.1% 64.0% 37.9% inter: 19.8% 13.1% 2.6%
    x264 [info]: i16 v,h,dc,p: 17% 27%  9% 47%
    x264 [info]: i8 v,h,dc,ddl,ddr,vr,hd,vl,hu: 10% 11% 12%  9% 12% 11% 12% 10% 13%
    x264 [info]: i4 v,h,dc,ddl,ddr,vr,hd,vl,hu: 11% 15%  6%  9% 14% 12% 13%  9% 12%
    x264 [info]: i8c dc,h,v,p: 45% 29% 17%  9%
    x264 [info]: Weighted P-Frames: Y:2.6% UV:1.4%
    x264 [info]: ref P L0: 56.8%  8.7% 22.1% 10.7%  1.8%  0.0%
    x264 [info]: ref B L0: 85.5% 11.6%  2.9%
    x264 [info]: ref B L1: 92.9%  7.1%
    x264 [info]: SSIM Mean Y:0.9831805 (17.742db)
    x264 [info]: PSNR Mean Y:46.369 U:49.329 V:50.177 Avg:47.143 Global:46.367 kb/s:6500.59

    Скриншоты

    -

    Релиз подготовлен для просмотра на Apple TV, iPad, iPhone, iPod Touch.
    Для просмотра данного релиза на компьютере с ОС Windows рекомендуется использовать VLC media player
    Скачать .torrent

    Скачать торрент-файл бесплатно и на максимальной скорости!

    Как скачивать? · Что такое торрент? · Рейтинг и ограничения

    !ВНИМАНИЕ!
    Сайт не распространяет и не хранит электронные версии произведений, а занимается лишь лишь предоставлением доступа к создаваемому пользователями каталогу ссылок на торрент-файлы, которые содержат только списки хеш-сумм, убедительная просьба с жалобами обращаться напрямую к пользователю. Файлы для обмена на трекере предоставлены пользователями сайта, и администрация не несёт ответственности за их содержание. Просьба не заливать файлы, защищенные авторскими правами, а также файлы нелегального содержания!


    _________________
    [Профиль] [ЛС]
    Показать сообщения:    
    Ответить на тему

    Текущее время: Сегодня, в 20:22

    Часовой пояс: GMT + 2



    Вы не можете начинать темы
    Вы не можете отвечать на сообщения
    Вы не можете редактировать свои сообщения
    Вы не можете удалять свои сообщения
    Вы не можете голосовать в опросах
    Вы не можете прикреплять файлы к сообщениям
    Вы не можете скачивать файлы