BitTorrentTracker PerecTracker.org
BitTorrentTracker PerecTracker.org
    
Регистрация  ·  Вход
 
 · 
Забыли пароль?

  • Грабитель / Der Rauber / The Robber (Беньямин Хайзенберг / Benjamin Heisenberg) [2010, Германия, Австрия, Биографический, Криминальный, Драма, HDRip] DVO (студия Elrom)

    Ответить на тему
     
    Автор Сообщение

    Columb

    Создавать темы 27-Авг-2013 09:27

           

    [Цитировать]

    Грабитель / Der Räuber / The Robber
    Страна: Германия, Австрия
    Студия: Nikolaus Geyrhalter Filmproduktion, Peter Heilrath Filmproduktion, ZDF/Arte
    Жанр: Биографический, Криминальный, Драма
    Год выпуска: 2010
    Продолжительность: 1:41:13
    Перевод: Профессиональный (двухголосый закадровый) студия Elrom
    Cубтитры: нет
    Оригинальная аудиодорожка: немецкий
    Режиссер: Беньямин Хайзенберг /Benjamin Heisenberg/
    В ролях: Андреас Люст /Andreas Lust/, Франциска Уайсс /Franziska Weisz/, Флориан Вотруба /Florian Wotruba/, Йохан Беднар /Johann Bednar/, Маркус Шляйнцер /Markus Schleinzer/, Петер Вильнай /Peter Vilnai/, Макс Эдельбахер /Max Edelbacher/
    Описание: Фильм рассказывает реальную историю Йоханесса Реттенбергера, спортсмена-марафонца, который в свободное от марафонов время, просто, грабил банки...
    Сэмпл: http://multi-up.com/893742
    Качество видео: HDRip (from the.robber.2010.limited.720p.bluray.x264-nodlabs.mkv)
    Формат видео: AVI

    Видео: 720x304 (2.37:1), 23.976 fps, XviD build 64 ~1469 kbps avg, 0.28 bit/pixel
    Аудио: 48 kHz, MPEG Layer 3, 2 ch, ~192.00 kbps avg (ru)
    Аудио 2: 48 kHz, AC3 Dolby Digital, 3/2 (L,C,R,l,r) + LFE ch, ~384 kbps (ger)

    MediaInfo

    General
    Complete name : E:\DOCS\Grabitel.10\Grabitel.2010.HDrip.XviD.Ru-Ger_25KADR.avi
    Format : AVI
    Format/Info : Audio Video Interleave
    File size : 1.46 GiB
    Duration : 1h 41mn
    Overall bit rate : 2 060 Kbps
    Movie name : Grabitel.2010.HDrip
    Original source form/Distributed by : the.robber.2010.limited.720p.bluray.x264-nodlabs.mkv
    Genre : Crime, Drama, Biography
    Copyright : 25KADR
    Comment : DVO (Elrom studio)
    Video
    ID : 0
    Format : MPEG-4 Visual
    Format profile : Advanced Simple@L5
    Format settings, BVOP : 2
    Format settings, QPel : No
    Format settings, GMC : No warppoints
    Format settings, Matrix : Default (MPEG)
    Codec ID : XVID
    Codec ID/Hint : XviD
    Duration : 1h 41mn
    Bit rate : 1 470 Kbps
    Width : 720 pixels
    Height : 304 pixels
    Display aspect ratio : 2.35:1
    Frame rate : 23.976 fps
    Color space : YUV
    Chroma subsampling : 4:2:0
    Bit depth : 8 bits
    Scan type : Progressive
    Compression mode : Lossy
    Bits/(Pixel*Frame) : 0.280
    Stream size : 1.04 GiB (71%)
    Writing library : XviD 64
    Audio #1
    ID : 1
    Format : MPEG Audio
    Format version : Version 1
    Format profile : Layer 3
    Codec ID : 55
    Codec ID/Hint : MP3
    Duration : 1h 41mn
    Bit rate mode : Constant
    Bit rate : 192 Kbps
    Channel(s) : 2 channels
    Sampling rate : 48.0 KHz
    Compression mode : Lossy
    Stream size : 139 MiB (9%)
    Alignment : Aligned on interleaves
    Interleave, duration : 42 ms (1.00 video frame)
    Interleave, preload duration : 504 ms
    Language : Russian, German
    Audio #2
    ID : 2
    Format : AC-3
    Format/Info : Audio Coding 3
    Mode extension : CM (complete main)
    Format settings, Endianness : Big
    Codec ID : 2000
    Duration : 1h 41mn
    Bit rate mode : Constant
    Bit rate : 384 Kbps
    Channel(s) : 6 channels
    Channel positions : Front: L C R, Side: L R, LFE
    Sampling rate : 48.0 KHz
    Bit depth : 16 bits
    Compression mode : Lossy
    Stream size : 278 MiB (19%)
    Alignment : Split accross interleaves
    Interleave, duration : 42 ms (1.00 video frame)
    Interleave, preload duration : 500 ms

    Скриншот c названием фильма

    Скриншоты

    Релиз :
    Скачать .torrent

    Скачать торрент-файл бесплатно и на максимальной скорости!

    Как скачивать? · Что такое торрент? · Рейтинг и ограничения

    !ВНИМАНИЕ!
    Сайт не распространяет и не хранит электронные версии произведений, а занимается лишь лишь предоставлением доступа к создаваемому пользователями каталогу ссылок на торрент-файлы, которые содержат только списки хеш-сумм, убедительная просьба с жалобами обращаться напрямую к пользователю. Файлы для обмена на трекере предоставлены пользователями сайта, и администрация не несёт ответственности за их содержание. Просьба не заливать файлы, защищенные авторскими правами, а также файлы нелегального содержания!

    [Профиль] [ЛС]
    Показать сообщения:    
    Ответить на тему

    Текущее время: Сегодня, в 18:21

    Часовой пояс: GMT + 2



    Вы не можете начинать темы
    Вы не можете отвечать на сообщения
    Вы не можете редактировать свои сообщения
    Вы не можете удалять свои сообщения
    Вы не можете голосовать в опросах
    Вы не можете прикреплять файлы к сообщениям
    Вы не можете скачивать файлы