BitTorrentTracker PerecTracker.org
BitTorrentTracker PerecTracker.org
    
Регистрация  ·  Вход
 
 · 
Забыли пароль?

  • [ANIME] Ветер крепчает / The Wind Rised / Kaze tachinu (Хаяо Миядзаки) [2013, Япония, аниме, мультфильм, драма, биография, BDRip HD (720p), SD] DUB, Original + SUB (rus, eng)

    Ответить на тему
     
    Автор Сообщение

    Light

    Создавать темы 07-Янв-2016 04:26

           

    [Цитировать]

    Ветер крепчает / The Wind Rised / Kaze tachinu
    "Ikineba"- - 8.265 / 10
    -Год выпуска: 2013
    Страна: Япония
    Жанр: аниме, мультфильм, драма, биография
    Продолжительность: 126 мин.
    Перевод: Профессиональный дублированный перевод
    Оригинальная аудиодорожка: Есть
    Cубтитры: Русские полные и английские полные
    Режиссёр: Хаяо Миядзаки
    Сценарий: Хаяо Миядзаки
    Продюсер: Тосио Судзуки, Наойя Фудзимаки, Риоичи Фукуяма
    Композитор: Джо Хисаиси
    В ролях: Джозеф Гордон-Левитт, Джон Красински, Эмили Блант, Мартин Шорт, Стэнли Туччи, Мэнди Пэтинкин, Мэй Уитман, Вернер Херцог, Дженнифер Грей, Уильям Х. Мэйси
    Роли дублировали: Борис Алексеев, Василий Марков, Елена Симанович, Андрей Андреев, Вячеслав Бухтояров
    Сборы в США: $4 689 109
    Сборы в мире: + $126 400 000 = $131 089 109
    Сборы в России: $769 418
    Мировая премьера: 20 июля 2013
    Премьера (РФ): 20 февраля 2014, Централ Партнершип
    Релиз на Blu-Ray: 27 августа 2014, Reanimedia
    Релиз на DVD: 25 марта 2014, ВС трейд
    Описание: Мальчик Дзиро мечтает о полетах и красивых самолетах, способных обогнать ветер. Вот только пилотом ему не стать - он с рождения близорук. Но Дзиро не расстается с мечтой о небе, он начинает придумывать идеальный самолет и со временем становится одним из лучших авиаконструкторов мира. На пути к успеху он не только встретит много интересных людей, переживет Великое землетрясение в Токио и жестокие войны, но и обретет любовь своей жизни - прекрасную Наоко.-Качество исходника: Blu-Ray 1080p (HDClub)
    Качество: BDRip
    Тип: 480p 720p
    Контейнер: m4v
    Видео: 640x464 анаморф 852x460 at 23.976 fps, MPEG-4 AVC, ~1400 kbps avg
    Видео: 1280x692 at 23.976 fps, MPEG-4 AVC, ~4000 kbps avg
    Аудио#1: Russian: 48 kHz, ААС, 1/0 (C), ~192.00 kbps avg |Дубляж|
    Аудио#2: Russian: 48 kHz, ААС, 2/0 (L,R), ~128.00/192.00 kbps avg |Дубляж|
    Аудио#3: Japanese: 48 kHz, ААС, 1/0 (C), ~192.00 kbps avg
    Аудио#4: Japanese: 48 kHz, ААС, 2/0 (L,R), ~128.00/192.00 kbps avg
    Субтитры №1: Russian: |Полные|
    Субтитры №2: English: |Полные|-

    Знаете ли Вы, что...

    • В качестве звуковых эффектов в фильме в основном используются человеческие голоса.
    • Главный герой Дзиро Хорикоси — это вымышленный персонаж, который был создан на основе смеси реальных историй жизни Тацуо Хори (Tatsuo Hori), автора одноименного рассказа, и Джиро Хорикоси (Jiro Horikoshi) — дизайнера самолета «Zero fighter». Название же фильма взято из перевода Хори цитаты из стихотворения Поля Валери «Le cimetiere marin».
    • Хаяо Миядзаки на Венецианском кинофестивале заявил, что это его последняя полнометражная работа.

    -

    iTunes MetaTags

    Name: The Wind Rised
    Artist: Hayao Miyazaki
    Genre: Kids & Family
    Release Date: 2013-07-20T08:00:00Z
    Description: Мальчик Дзиро мечтает о полетах и красивых самолетах, способных обогнать ветер. Вот только пилотом ему не стать - он с рождения близорук. Но Дзиро не расстается с мечтой о небе, он начинает придумывать идеальный самолет и со временем становится одним из лучших авиаконструкторов мира...
    Long Description: Мальчик Дзиро мечтает о полетах и красивых самолетах, способных обогнать ветер. Вот только пилотом ему не стать - он с рождения близорук. Но Дзиро не расстается с мечтой о небе, он начинает придумывать идеальный самолет и со временем становится одним из лучших авиаконструкторов мира. На пути к успеху он не только встретит много интересных людей, переживет Великое землетрясение в Токио и жестокие войны, но и обретет любовь своей жизни - прекрасную Наоко.
    Rating: PG-13
    Cast: Джозеф Гордон-Левитт, Джон Красински, Эмили Блант, Мартин Шорт, Стэнли Туччи, Мэнди Пэтинкин, Мэй Уитман, Вернер Херцог, Дженнифер Грей, Уильям Х. Мэйси
    Director: Хаяо Миядзаки
    Producers: Тосио Судзуки, Наойя Фудзимаки, Риоичи Фукуяма
    Screenwriters: Хаяо Миядзаки
    contentID: 693969
    XID: Apple:vendor_id:2013-693969
    Sort Name: Wind Rised

    MediaInfo 480p Release

    General
    Complete name : The Wind Rised.m4v
    Format : MPEG-4
    Codec ID : M4V
    File size : 1.83 GiB
    Duration : 2h 6mn
    Overall bit rate mode : Variable
    Overall bit rate : 2 062 Kbps
    Movie name : The Wind Rised
    Performer : Hayao Miyazaki
    Genre : Kids & Family
    ContentType : Short Film
    Description : Мальчик Дзиро мечтает о полетах и красивых самолетах, способных обогнать ветер. Вот только пилотом ему не стать - он с рождения близорук. Но Дзиро не расстается с мечтой о небе, он начинает придумывать идеальный самолет и со временем становится одним из лучших авиаконструкторов мира...
    Recorded date : UTC 2013-07-20 08:00:00
    Encoded date : UTC 2014-11-12 20:25:03
    Tagged date : UTC 2014-11-13 11:53:51
    Cover : Yes
    Rating : None
    Title/Sort : Wind Rised
    LongDescription : Мальчик Дзиро мечтает о полетах и красивых самолетах, способных обогнать ветер. Вот только пилотом ему не стать - он с рождения близорук. Но Дзиро не расстается с мечтой о небе, он начинает придумывать идеальный самолет и со временем становится одним из лучших авиаконструкторов мира. На пути к успеху он не только встретит много интересных людей, переживет Великое землетрясение в Токио и жестокие войны, но и обретет любовь своей жизни - прекрасную Наоко.
    AppleStoreCatalogID : 693969
    Vendor : Apple:vendor_id:2013-693969
    ContentRating : mpaa|PG-13|300|
    iTunMOVI : <?xml version="1.0" encoding="UTF-8"?> / <!DOCTYPE plist PUBLIC "-//Apple//DTD PLIST 1.0//EN" "http://anonym.to/?http://www.apple.com/DTDs/PropertyList-1.0.dtd"> / <plist version="1.0"> / <dict> /  <key>cast</key> /  <array> /   <dict> /    <key>name</key> /    <string>Джозеф Гордон-Левитт</string> /   </dict> /   <dict> /    <key>name</key> /    <string>Джон Красински</string> /   </dict> /   <dict> /    <key>name</key> /    <string>Эмили Блант</string> /   </dict> /   <dict> /    <key>name</key> /    <string>Мартин Шорт</string> /   </dict> /   <dict> /    <key>name</key> /    <string>Стэнли Туччи</string> /   </dict> /   <dict> /    <key>name</key> /    <string>Мэнди Пэтинкин</string> /   </dict> /   <dict> /    <key>name</key> /    <string>Мэй Уитман</string> /   </dict> /   <dict> /    <key>name</key> /    <string>Вернер Херцог</string> /   </dict> /   <dict> /    <key>name</key> /    <string>Дженнифер Грей</string> /   </dict> /   <dict> /    <key>name</key> /    <string>Уильям Х. Мэйси</string> /   </dict> /  </array> /  <key>directors</key> /  <array> /   <dict> /    <key>name</key> /    <string>Хаяо Миядзаки</string> /   </dict> /  </array> /  <key>producers</key> /  <array> /   <dict> /    <key>name</key> /    <string>Тосио Судзуки</string> /   </dict> /   <dict> /    <key>name</key> /    <string>Наойя Фудзимаки</string> /   </dict> /   <dict> /    <key>name</key> /    <string>Риоичи Фукуяма</string> /   </dict> /  </array> /  <key>screenwriters</key> /  <array> /   <dict> /    <key>name</key> /    <string>Хаяо Миядзаки</string> /   </dict> /  </array> / </dict> / </plist>
    Video #1
    ID : 1
    Format : AVC
    Format/Info : Advanced Video Codec
    Format profile : Baseline@L3.0
    Format settings, CABAC : No
    Format settings, ReFrames : 2 frames
    Codec ID : avc1
    Codec ID/Info : Advanced Video Coding
    Duration : 2h 6mn
    Bit rate : 1 400 Kbps
    Width : 640 pixels
    Height : 464 pixels
    Display aspect ratio : 1.85:1
    Frame rate mode : Variable
    Frame rate : 23.976 fps
    Minimum frame rate : 23.810 fps
    Maximum frame rate : 24.390 fps
    Color space : YUV
    Chroma subsampling : 4:2:0
    Bit depth : 8 bits
    Scan type : Progressive
    Bits/(Pixel*Frame) : 0.197
    Stream size : 1.24 GiB (68%)
    Writing library : x264 core 130 r2273 b3065e6
    Encoding settings : cabac=0 / ref=2 / deblock=1:0:0 / analyse=0x1:0x111 / me=umh / subme=6 / psy=1 / psy_rd=1.00:0.00 / mixed_ref=1 / me_range=16 / chroma_me=1 / trellis=0 / 8x8dct=0 / cqm=0 / deadzone=21,11 / fast_pskip=1 / chroma_qp_offset=-2 / threads=18 / lookahead_threads=3 / sliced_threads=0 / nr=0 / decimate=1 / interlaced=0 / bluray_compat=0 / constrained_intra=0 / bframes=0 / weightp=0 / keyint=240 / keyint_min=24 / scenecut=40 / intra_refresh=0 / rc_lookahead=40 / rc=2pass / mbtree=1 / bitrate=1400 / ratetol=1.0 / qcomp=0.60 / qpmin=0 / qpmax=69 / qpstep=4 / cplxblur=20.0 / qblur=0.5 / vbv_maxrate=5000 / vbv_bufsize=5000 / nal_hrd=none / ip_ratio=1.40 / aq=1:1.00
    Language : Japanese
    Encoded date : UTC 2014-11-12 20:25:03
    Tagged date : UTC 2014-11-12 20:26:19
    Color primaries : BT.709
    Transfer characteristics : BT.709
    Matrix coefficients : BT.709
    Video #2
    ID : 9
    Format : JPEG
    Codec ID : jpeg
    Duration : 2h 6mn
    Bit rate mode : Variable
    Bit rate : 717 bps
    Width : 640 pixels
    Height : 348 pixels
    Display aspect ratio : 1.85:1
    Frame rate mode : Variable
    Frame rate : 0.002 fps
    Minimum frame rate : 0.001 fps
    Maximum frame rate : 0.051 fps
    Color space : YUV
    Chroma subsampling : 4:2:0
    Bit depth : 8 bits
    Compression mode : Lossy
    Bits/(Pixel*Frame) : 1.610
    Stream size : 701 KiB (0%)
    Language : Japanese
    Encoded date : UTC 2014-11-12 20:26:39
    Tagged date : UTC 2014-11-12 20:26:39
    Audio #1
    ID : 2
    Format : AAC
    Format/Info : Advanced Audio Codec
    Format profile : LC
    Codec ID : 40
    Duration : 2h 6mn
    Bit rate mode : Variable
    Bit rate : 224 Kbps
    Maximum bit rate : 252 Kbps
    Channel(s) : 2 channels
    Channel(s)_Original : 1 channel
    Channel positions : Front: C
    Sampling rate : 48.0 KHz
    Compression mode : Lossy
    Stream size : 202 MiB (11%)
    Language : Russian
    Encoded date : UTC 2014-11-12 20:25:03
    Tagged date : UTC 2014-11-12 20:26:24
    Audio #2
    ID : 3
    Format : AAC
    Format/Info : Advanced Audio Codec
    Format profile : LC
    Codec ID : 40
    Duration : 2h 6mn
    Bit rate mode : Variable
    Bit rate : 111 Kbps
    Maximum bit rate : 128 Kbps
    Channel(s) : 2 channels
    Channel positions : Front: L R
    Sampling rate : 48.0 KHz
    Compression mode : Lossy
    Stream size : 100 MiB (5%)
    Language : Russian
    Encoded date : UTC 2014-11-12 20:25:03
    Tagged date : UTC 2014-11-12 20:26:33
    Audio #3
    ID : 4
    Format : AAC
    Format/Info : Advanced Audio Codec
    Format profile : LC
    Codec ID : 40
    Duration : 2h 6mn
    Bit rate mode : Variable
    Bit rate : 214 Kbps
    Maximum bit rate : 248 Kbps
    Channel(s) : 2 channels
    Channel(s)_Original : 1 channel
    Channel positions : Front: C
    Sampling rate : 48.0 KHz
    Compression mode : Lossy
    Stream size : 194 MiB (10%)
    Language : Japanese
    Encoded date : UTC 2014-11-12 20:25:03
    Tagged date : UTC 2014-11-12 20:26:24
    Audio #4
    ID : 5
    Format : AAC
    Format/Info : Advanced Audio Codec
    Format profile : LC
    Codec ID : 40
    Duration : 2h 6mn
    Bit rate mode : Variable
    Bit rate : 111 Kbps
    Maximum bit rate : 126 Kbps
    Channel(s) : 2 channels
    Channel positions : Front: L R
    Sampling rate : 48.0 KHz
    Compression mode : Lossy
    Stream size : 101 MiB (5%)
    Language : Japanese
    Encoded date : UTC 2014-11-12 20:25:03
    Tagged date : UTC 2014-11-12 20:26:33
    Text #1
    ID : 6
    Format : Timed Text
    Muxing mode : sbtl
    Codec ID : tx3g
    Duration : 2h 6mn
    Bit rate mode : Variable
    Bit rate : 70 bps
    Stream size : 65.0 KiB (0%)
    Language : Russian
    Encoded date : UTC 2014-11-12 20:25:03
    Tagged date : UTC 2014-11-12 20:25:03
    Text #2
    ID : 7
    Format : Timed Text
    Muxing mode : sbtl
    Codec ID : tx3g
    Duration : 2h 6mn
    Bit rate mode : Variable
    Bit rate : 37 bps
    Stream size : 34.6 KiB (0%)
    Language : English
    Encoded date : UTC 2014-11-12 20:25:03
    Tagged date : UTC 2014-11-12 20:25:03
    Menu #1
    00:00:00.000 : 1
    00:07:09.179 : 2
    00:12:52.647 : 3
    00:21:53.938 : 4
    00:37:49.392 : 5
    00:44:57.486 : 6
    00:52:59.593 : 7
    01:00:33.713 : 8
    01:08:06.249 : 9
    01:17:12.878 : 10
    01:28:43.985 : 11
    01:35:20.506 : 12
    01:46:39.018 : 13
    01:52:45.842 : 14
    02:02:56.661 : 15
    02:06:31.042 : 16
    Menu #2
    ID : 8
    Codec ID : text
    Duration : 2h 6mn
    Language : Japanese
    Encoded date : UTC 2014-11-12 20:26:33
    Tagged date : UTC 2014-11-12 20:26:33
    00:00:00.000 : 1
    00:07:09.179 : 2
    00:12:52.647 : 3
    00:21:53.938 : 4
    00:37:49.392 : 5
    00:44:57.486 : 6
    00:52:59.593 : 7
    01:00:33.713 : 8
    01:08:06.249 : 9
    01:17:12.878 : 10
    01:28:43.985 : 11
    01:35:20.506 : 12
    01:46:39.018 : 13
    01:52:45.842 : 14
    02:02:56.661 : 15
    02:06:31.042 : 16
    Bit rate mode : VBR

    MediaInfo 720p Release

    General
    Complete name : The Wind Rised (HD).m4v
    Format : MPEG-4
    Codec ID : M4V
    File size : 4.22 GiB
    Duration : 2h 6mn
    Overall bit rate mode : Variable
    Overall bit rate : 4 762 Kbps
    Movie name : The Wind Rised
    Performer : Hayao Miyazaki
    Genre : Kids & Family
    ContentType : Short Film
    Description : Мальчик Дзиро мечтает о полетах и красивых самолетах, способных обогнать ветер. Вот только пилотом ему не стать - он с рождения близорук. Но Дзиро не расстается с мечтой о небе, он начинает придумывать идеальный самолет и со временем становится одним из лучших авиаконструкторов мира...
    Recorded date : UTC 2013-07-20 08:00:00
    Encoded date : UTC 2014-11-12 19:54:36
    Tagged date : UTC 2014-11-13 11:49:15
    Cover : Yes
    Rating : None
    Title/Sort : Wind Rised
    LongDescription : Мальчик Дзиро мечтает о полетах и красивых самолетах, способных обогнать ветер. Вот только пилотом ему не стать - он с рождения близорук. Но Дзиро не расстается с мечтой о небе, он начинает придумывать идеальный самолет и со временем становится одним из лучших авиаконструкторов мира. На пути к успеху он не только встретит много интересных людей, переживет Великое землетрясение в Токио и жестокие войны, но и обретет любовь своей жизни - прекрасную Наоко.
    HDVideo : Yes
    AppleStoreCatalogID : 693969
    Vendor : Apple:vendor_id:2013-693969
    ContentRating : mpaa|PG-13|300|
    iTunMOVI : <?xml version="1.0" encoding="UTF-8"?> / <!DOCTYPE plist PUBLIC "-//Apple//DTD PLIST 1.0//EN" "http://anonym.to/?http://www.apple.com/DTDs/PropertyList-1.0.dtd"> / <plist version="1.0"> / <dict> /  <key>cast</key> /  <array> /   <dict> /    <key>name</key> /    <string>Джозеф Гордон-Левитт</string> /   </dict> /   <dict> /    <key>name</key> /    <string>Джон Красински</string> /   </dict> /   <dict> /    <key>name</key> /    <string>Эмили Блант</string> /   </dict> /   <dict> /    <key>name</key> /    <string>Мартин Шорт</string> /   </dict> /   <dict> /    <key>name</key> /    <string>Стэнли Туччи</string> /   </dict> /   <dict> /    <key>name</key> /    <string>Мэнди Пэтинкин</string> /   </dict> /   <dict> /    <key>name</key> /    <string>Мэй Уитман</string> /   </dict> /   <dict> /    <key>name</key> /    <string>Вернер Херцог</string> /   </dict> /   <dict> /    <key>name</key> /    <string>Дженнифер Грей</string> /   </dict> /   <dict> /    <key>name</key> /    <string>Уильям Х. Мэйси</string> /   </dict> /  </array> /  <key>directors</key> /  <array> /   <dict> /    <key>name</key> /    <string>Хаяо Миядзаки</string> /   </dict> /  </array> /  <key>producers</key> /  <array> /   <dict> /    <key>name</key> /    <string>Тосио Судзуки</string> /   </dict> /   <dict> /    <key>name</key> /    <string>Наойя Фудзимаки</string> /   </dict> /   <dict> /    <key>name</key> /    <string>Риоичи Фукуяма</string> /   </dict> /  </array> /  <key>screenwriters</key> /  <array> /   <dict> /    <key>name</key> /    <string>Хаяо Миядзаки</string> /   </dict> /  </array> / </dict> / </plist>
    Video #1
    ID : 1
    Format : AVC
    Format/Info : Advanced Video Codec
    Format profile : High@L3.1
    Format settings, CABAC : No
    Format settings, ReFrames : 3 frames
    Codec ID : avc1
    Codec ID/Info : Advanced Video Coding
    Duration : 2h 6mn
    Bit rate : 4 000 Kbps
    Width : 1 280 pixels
    Height : 692 pixels
    Display aspect ratio : 1.85:1
    Frame rate mode : Variable
    Frame rate : 23.976 fps
    Minimum frame rate : 23.810 fps
    Maximum frame rate : 24.570 fps
    Color space : YUV
    Chroma subsampling : 4:2:0
    Bit depth : 8 bits
    Scan type : Progressive
    Bits/(Pixel*Frame) : 0.188
    Stream size : 3.54 GiB (84%)
    Writing library : x264 core 130 r2273 b3065e6
    Encoding settings : cabac=0 / ref=3 / deblock=1:0:0 / analyse=0x3:0x113 / me=umh / subme=9 / psy=1 / psy_rd=0.80:0.00 / mixed_ref=1 / me_range=32 / chroma_me=1 / trellis=0 / 8x8dct=1 / cqm=0 / deadzone=21,11 / fast_pskip=0 / chroma_qp_offset=-2 / threads=18 / lookahead_threads=1 / sliced_threads=0 / nr=0 / decimate=0 / interlaced=0 / bluray_compat=0 / constrained_intra=0 / bframes=3 / b_pyramid=0 / b_adapt=2 / b_bias=0 / direct=1 / weightb=0 / open_gop=0 / weightp=0 / keyint=240 / keyint_min=24 / scenecut=40 / intra_refresh=0 / rc_lookahead=40 / rc=2pass / mbtree=1 / bitrate=4000 / ratetol=1.0 / qcomp=0.70 / qpmin=0 / qpmax=69 / qpstep=4 / cplxblur=20.0 / qblur=0.5 / vbv_maxrate=9500 / vbv_bufsize=9500 / nal_hrd=none / ip_ratio=1.40 / aq=1:1.10
    Language : Japanese
    Encoded date : UTC 2014-11-12 19:54:36
    Tagged date : UTC 2014-11-12 19:57:40
    Color primaries : BT.709
    Transfer characteristics : BT.709
    Matrix coefficients : BT.709
    Video #2
    ID : 9
    Format : JPEG
    Codec ID : jpeg
    Duration : 2h 6mn
    Bit rate mode : Variable
    Bit rate : 776 bps
    Width : 640 pixels
    Height : 346 pixels
    Display aspect ratio : 1.85:1
    Frame rate mode : Variable
    Frame rate : 0.002 fps
    Minimum frame rate : 0.001 fps
    Maximum frame rate : 0.051 fps
    Color space : YUV
    Chroma subsampling : 4:2:0
    Bit depth : 8 bits
    Compression mode : Lossy
    Bits/(Pixel*Frame) : 1.752
    Stream size : 758 KiB (0%)
    Language : Japanese
    Encoded date : UTC 2014-11-12 20:11:25
    Tagged date : UTC 2014-11-12 20:11:26
    Audio #1
    ID : 2
    Format : AAC
    Format/Info : Advanced Audio Codec
    Format profile : LC
    Codec ID : 40
    Duration : 2h 6mn
    Bit rate mode : Variable
    Bit rate : 224 Kbps
    Maximum bit rate : 252 Kbps
    Channel(s) : 2 channels
    Channel(s)_Original : 1 channel
    Channel positions : Front: C
    Sampling rate : 48.0 KHz
    Compression mode : Lossy
    Stream size : 202 MiB (5%)
    Language : Russian
    Encoded date : UTC 2014-11-12 19:54:36
    Tagged date : UTC 2014-11-12 19:57:57
    Audio #2
    ID : 3
    Format : AAC
    Format/Info : Advanced Audio Codec
    Format profile : LC
    Codec ID : 40
    Duration : 2h 6mn
    Bit rate mode : Variable
    Bit rate : 160 Kbps
    Maximum bit rate : 205 Kbps
    Channel(s) : 2 channels
    Channel positions : Front: L R
    Sampling rate : 48.0 KHz
    Compression mode : Lossy
    Stream size : 144 MiB (3%)
    Language : Russian
    Encoded date : UTC 2014-11-12 19:54:36
    Tagged date : UTC 2014-11-12 19:58:00
    Audio #3
    ID : 4
    Format : AAC
    Format/Info : Advanced Audio Codec
    Format profile : LC
    Codec ID : 40
    Duration : 2h 6mn
    Bit rate mode : Variable
    Bit rate : 214 Kbps
    Maximum bit rate : 248 Kbps
    Channel(s) : 2 channels
    Channel(s)_Original : 1 channel
    Channel positions : Front: C
    Sampling rate : 48.0 KHz
    Compression mode : Lossy
    Stream size : 194 MiB (4%)
    Language : Japanese
    Encoded date : UTC 2014-11-12 19:54:36
    Tagged date : UTC 2014-11-12 19:57:59
    Audio #4
    ID : 5
    Format : AAC
    Format/Info : Advanced Audio Codec
    Format profile : LC
    Codec ID : 40
    Duration : 2h 6mn
    Bit rate mode : Variable
    Bit rate : 162 Kbps
    Maximum bit rate : 199 Kbps
    Channel(s) : 2 channels
    Channel positions : Front: L R
    Sampling rate : 48.0 KHz
    Compression mode : Lossy
    Stream size : 146 MiB (3%)
    Language : Japanese
    Encoded date : UTC 2014-11-12 19:54:36
    Tagged date : UTC 2014-11-12 19:58:00
    Text #1
    ID : 6
    Format : Timed Text
    Muxing mode : sbtl
    Codec ID : tx3g
    Duration : 2h 6mn
    Bit rate mode : Variable
    Bit rate : 70 bps
    Stream size : 65.0 KiB (0%)
    Language : Russian
    Encoded date : UTC 2014-11-12 20:00:37
    Tagged date : UTC 2014-11-12 20:03:18
    Text #2
    ID : 7
    Format : Timed Text
    Muxing mode : sbtl
    Codec ID : tx3g
    Duration : 2h 6mn
    Bit rate mode : Variable
    Bit rate : 37 bps
    Stream size : 34.6 KiB (0%)
    Language : English
    Encoded date : UTC 2014-11-12 20:00:37
    Tagged date : UTC 2014-11-12 20:03:18
    Menu #1
    00:00:00.000 : 1
    00:07:09.179 : 2
    00:12:52.647 : 3
    00:21:53.938 : 4
    00:37:49.392 : 5
    00:44:57.486 : 6
    00:52:59.593 : 7
    01:00:33.713 : 8
    01:08:06.249 : 9
    01:17:12.878 : 10
    01:28:43.985 : 11
    01:35:20.506 : 12
    01:46:39.018 : 13
    01:52:45.842 : 14
    02:02:56.661 : 15
    02:06:31.042 : 16
    Menu #2
    ID : 8
    Codec ID : text
    Duration : 2h 6mn
    Language : Japanese
    Encoded date : UTC 2014-11-12 20:11:18
    Tagged date : UTC 2014-11-12 20:11:18
    00:00:00.000 : 1
    00:07:09.179 : 2
    00:12:52.647 : 3
    00:21:53.938 : 4
    00:37:49.392 : 5
    00:44:57.486 : 6
    00:52:59.593 : 7
    01:00:33.713 : 8
    01:08:06.249 : 9
    01:17:12.878 : 10
    01:28:43.985 : 11
    01:35:20.506 : 12
    01:46:39.018 : 13
    01:52:45.842 : 14
    02:02:56.661 : 15
    02:06:31.042 : 16
    Bit rate mode : VBR

    x264 лог 480p Release

    HandBrakeCLI -i "The.Wind.Rised.mkv" -t 1 -o "The.wind.rised.480p.jap.m4v" -f mp4 -I -O -w 640 -l 464 --crop 22:22:0:0 --custom-anamorphic  --modulus 16 --pixel-aspect 852:640 -e x264 -b 1400 -2 -a none -x cabac=0:ref=2:me=umh:bframes=0:weightp=0:subq=6:8x8dct=0:trellis=0:vbv-maxrate=5000:vbv-bufsize=5000 --verbose=1
    x264 [info]: frame I:2132  Avg QP:16.95  size: 46079  PSNR Mean Y:46.66 U:50.82 V:50.24 Avg:47.50 Global:46.25
    x264 [info]: frame P:180340 Avg QP:19.61  size:  6810  PSNR Mean Y:44.31 U:47.72 V:47.59 Avg:45.12 Global:44.40
    x264 [info]: mb I  I16..4: 17.7%  0.0% 82.3%
    x264 [info]: mb P  I16..4:  0.5%  0.0%  2.1%  P16..4: 32.4% 12.5%  6.8%  0.0%  0.0%    skip:45.7%
    x264 [info]: coded y,uvDC,uvAC intra: 74.5% 75.0% 59.6% inter: 16.2% 11.4% 4.9%
    x264 [info]: i16 v,h,dc,p: 46% 20% 11% 24%
    x264 [info]: i4 v,h,dc,ddl,ddr,vr,hd,vl,hu: 31% 16% 16%  7%  7%  7%  6%  6%  5%
    x264 [info]: i8c dc,h,v,p: 51% 18% 23%  8%
    x264 [info]: ref P L0: 68.9% 31.1%
    x264 [info]: SSIM Mean Y:0.9877991 (19.136db)
    x264 [info]: PSNR Mean Y:44.339 U:47.752 V:47.617 Avg:45.147 Global:44.415 kb/s:1394.20

    x264 лог 720p Release

    HandBrakeCLI -i "The.Wind.Rised.mkv" -t 1 -o "The.wind.rised.720p.jap.m4v" -f mp4 -4 -O -w 1280 -l 692 --crop 22:22:0:0 --modulus 2 -e x264 -b 4000 -2 -a none -x cabac=0:ref=3:me=umh:b-pyramid=none:b-adapt=2:weightb=0:trellis=0:weightp=0:vbv-maxrate=9500:vbv-bufsize=9500:subq=9:merange=32:deblock=0,0:qcomp=0.70:qpmin=0:qpmax=69:fast_pskip=0:aq-strength=1.1:no-dct-decimate=1:psy-rd=0.80,0.00:ip_ratio=1.30:pb_ratio=1.00 --verbose=1
    x264 [info]: frame I:1587  Avg QP:13.59  size:158900  PSNR Mean Y:48.74 U:52.07 V:51.63 Avg:49.52 Global:49.00
    x264 [info]: frame P:71295 Avg QP:16.02  size: 41166  PSNR Mean Y:46.25 U:50.37 V:49.99 Avg:47.17 Global:46.56
    x264 [info]: frame B:109590 Avg QP:18.56  size:  5576  PSNR Mean Y:45.81 U:50.56 V:50.10 Avg:46.82 Global:46.11
    x264 [info]: consecutive B-frames:  6.5% 24.5% 47.0% 21.9%
    x264 [info]: mb I  I16..4:  3.2% 50.4% 46.5%
    x264 [info]: mb P  I16..4:  0.6%  4.1%  2.8%  P16..4: 47.4% 27.0% 12.4%  0.0%  0.0%    skip: 5.8%
    x264 [info]: mb B  I16..4:  0.1%  0.4%  0.4%  B16..8: 30.9%  7.3%  1.0%  direct: 2.1%  skip:57.9%  L0:46.5% L1:47.3% BI: 6.2%
    x264 [info]: 8x8 transform intra:52.3% inter:31.9%
    x264 [info]: coded y,uvDC,uvAC intra: 87.6% 71.3% 58.2% inter: 22.2% 13.0% 10.3%
    x264 [info]: i16 v,h,dc,p: 36% 23% 10% 31%
    x264 [info]: i8 v,h,dc,ddl,ddr,vr,hd,vl,hu: 11% 10% 14% 10% 11% 11% 12%  9% 12%
    x264 [info]: i4 v,h,dc,ddl,ddr,vr,hd,vl,hu: 23% 12%  5% 10% 12% 11% 11%  8%  7%
    x264 [info]: i8c dc,h,v,p: 52% 22% 19%  7%
    x264 [info]: ref P L0: 63.2% 23.5% 13.2%
    x264 [info]: ref B L0: 77.9% 22.1%
    x264 [info]: SSIM Mean Y:0.9886883 (19.465db)
    x264 [info]: PSNR Mean Y:46.003 U:50.500 V:50.067 Avg:46.978 Global:46.295 kb/s:3992.56

    Скриншоты 480p Release

    Скриншоты 720p Release

    -

    Релиз подготовлен для просмотра на Apple TV, iPad, iPhone, iPod Touch.
    Для просмотра данного релиза на компьютере с ОС Windows рекомендуется использовать VLC media player
    Скачать .torrent

    Скачать торрент-файл бесплатно и на максимальной скорости!

    Как скачивать? · Что такое торрент? · Рейтинг и ограничения

    !ВНИМАНИЕ!
    Сайт не распространяет и не хранит электронные версии произведений, а занимается лишь лишь предоставлением доступа к создаваемому пользователями каталогу ссылок на торрент-файлы, которые содержат только списки хеш-сумм, убедительная просьба с жалобами обращаться напрямую к пользователю. Файлы для обмена на трекере предоставлены пользователями сайта, и администрация не несёт ответственности за их содержание. Просьба не заливать файлы, защищенные авторскими правами, а также файлы нелегального содержания!


    _________________
    [Профиль] [ЛС]
    Показать сообщения:    
    Ответить на тему

    Текущее время: Сегодня, в 02:00

    Часовой пояс: GMT + 2



    Вы не можете начинать темы
    Вы не можете отвечать на сообщения
    Вы не можете редактировать свои сообщения
    Вы не можете удалять свои сообщения
    Вы не можете голосовать в опросах
    Вы не можете прикреплять файлы к сообщениям
    Вы не можете скачивать файлы