BitTorrentTracker PerecTracker.org
BitTorrentTracker PerecTracker.org
    
Регистрация  ·  Вход
 
 · 
Забыли пароль?

  • [ANIME] Сад изящных слов / The Garden of Words / Koto no ha no niwa (Макото Синкай) [2013, Япония, аниме, мультфильм, мелодрама, BDRip HD (720p), SD] DUB, Original + SUB (rus)

    Ответить на тему
     
    Автор Сообщение

    Light

    Создавать темы 07-Янв-2016 04:26

           

    [Цитировать]

    Сад изящных слов / The Garden of Words / Koto no ha no niwa
    "Этот дождь пахнет небом"
    7.934 / 10
    -Год выпуска: 2013
    Страна: Япония
    Жанр: аниме, мультфильм, мелодрама
    Продолжительность: 46 мин.
    Перевод: Профессиональный дублированный перевод
    Оригинальная аудиодорожка: Есть
    Cубтитры: Русские форсированные и русские полные
    Режиссёр: Макото Синкай
    Сценарий: Макото Синкай
    Продюсер: Норитака Кавагути, Дэвид Дель Рио, Коитиро Ито
    Оператор: Макото Синкай
    Композитор: Дайсукэ Касива
    Художник: Хироси Такигути
    Монтаж: Макото Синкай
    В ролях: Ирино Мию, Кана Ханадзава, Фуми Хирано, Гоу Маэда, Юка Тэрасаки, Сугуру Иноэ
    Роли дублировали: Юрий Романов, Татьяна Литвинова, Людмила Гуськова, Михаил Каданин, Екатерина Астрединова
    Мировая премьера: 31 мая 2013
    Премьера (РФ): 27 сентября 2013, Reanimedia
    Релиз на Blu-Ray: 16 сентября 2014, Reanimedia
    Релиз на DVD: 16 сентября 2014, Reanimedia
    Описание: Юноша по имени Такао встречает таинственную молодую женщину. Их случайные и как будто ни к чему не ведущие встречи в парке, где Такао прогуливает занятия, работая над достижением своей странной мечты - посвятить жизнь конструированию и изготовлению обуви - повторяются снова и снова... правда, только в ненастные дни. Сердца героев начинают приоткрываться друг другу, но на это нужно время, а впереди уже маячит конец сезона дождей...-Качество исходника: Blu-Ray 1080p (HDClub)
    Качество: BDRip
    Тип: 480p 720p
    Контейнер: m4v
    Видео: 640x480 анаморф 852x480 at 23.976 fps, MPEG-4 AVC, ~1500 kbps avg
    Видео: 1280x720 at 23.976 fps, MPEG-4 AVC, ~4000 kbps avg
    Аудио#1: Russian: 48 kHz, ААС, 2/0 (L,R), ~128.00 / 192.00 kbps avg |Дубляж|
    Аудио#2: Japanese: 48 kHz, ААС, 2/0 (L,R), ~128.00 / 192.00 kbps avg
    Аудио#3: Japanese: 48 kHz, ААС, 2/0 (L,R), ~128.00 kbps avg |Аудиокомментарий режиссера|
    Аудио#4: Russian: 48 kHz, AC3, 3/2 (L,C,R,l,r) + LFE ch, ~640.00 kbps avg |Дубляж|
    Аудио#5: Japanese: 48 kHz, AC3, 3/2 (L,C,R,l,r) + LFE ch, ~640.00 kbps avg
    Субтитры №1: Russian: |Форсированные|
    Субтитры №2: Russian: |Полные|
    Субтитры №3: Russian: |Полные, Аудиокомментарий режиссера|-

    Знаете ли Вы, что...

    • Фоны, используемые в фильме в основном базируются на фотографиях, сделанных в парке Синдзюку Гёэн (Shinjuku Gyoen).
    • В фильме звучит стихотворение из старинного сборника «Манъёсю».
    • Это первый фильм режиссера Макото Синкая, снятый им без участия композитора Тэнмона.
    • Макото Синкай отмечает сильное влияние книги «Норвежский лес» Харуки Мураками, на которую в мультфильме есть даже прямые аллюзии.

    -

    iTunes Meta Tags for country us

    Name: The Garden of Words (Dubbed)
    Artist: Makoto Shinkai
    Genre: Anime
    Release Date: 2013-05-31T08:00:00Z
    Description: Юноша по имени Такао встречает таинственную молодую женщину. Их случайные и как будто ни к чему не ведущие встречи в парке, где Такао прогуливает занятия, работая над достижением своей странной мечты - посвятить жизнь конструированию и изготовлению обуви - повторяются снова и снова... правда, только в ненастные дни. Сердца героев начинают приоткрываться друг другу, но на это нужно время, а впереди уже маячит конец сезона дождей...
    Long Description: Юноша по имени Такао встречает таинственную молодую женщину. Их случайные и как будто ни к чему не ведущие встречи в парке, где Такао прогуливает занятия, работая над достижением своей странной мечты - посвятить жизнь конструированию и изготовлению обуви - повторяются снова и снова... правда, только в ненастные дни. Сердца героев начинают приоткрываться друг другу, но на это нужно время, а впереди уже маячит конец сезона дождей...
    Rating: PG-13
    Studio: Sentai Filmworks
    Cast: Ирино Мию, Кана Ханадзава, Фуми Хирано, Гоу Маэда, Юка Тэрасаки, Сугуру Иноэ
    Director: Макото Синкай
    Producers: Норитака Кавагути, Дэвид Дель Рио, Коитиро Ито
    Screenwriters: Макото Синкай
    Copyright: © 2013 Makoto Shinkai / CoMix Wave Films
    contentID: 662833100
    XID: Apple:vendor_id:2013-730665
    Sort Name: Garden of Words (Dubbed)

    MediaInfo 480p Release

    General
    Complete name : The Garden of Words.m4v
    Format : MPEG-4
    Codec ID : M4V
    File size : 628 MiB
    Duration : 46mn 20s
    Overall bit rate mode : Variable
    Overall bit rate : 1 896 Kbps
    Movie name : The Garden of Words
    Performer : Makoto Shinkai
    Genre : Anime
    ContentType : Short Film
    Description : Юноша по имени Такао встречает таинственную молодую женщину. Их случайные и как будто ни к чему не ведущие встречи в парке, где Такао прогуливает занятия, работая над достижением своей странной мечты - посвятить жизнь конструированию и изготовлению обуви - повторяются снова и снова... правда, только в ненастные дни. Сердца героев начинают приоткрываться друг другу, но на это нужно время, а впереди уже маячит конец сезона дождей...
    Recorded date : UTC 2013-05-31 08:00:00
    Encoded date : UTC 2014-12-02 13:01:31
    Tagged date : UTC 2014-12-02 14:16:04
    Copyright : © 2013 Makoto Shinkai / CoMix Wave Films
    Cover : Yes
    Rating : None
    Title/Sort : Garden of Words
    LongDescription : Юноша по имени Такао встречает таинственную молодую женщину. Их случайные и как будто ни к чему не ведущие встречи в парке, где Такао прогуливает занятия, работая над достижением своей странной мечты - посвятить жизнь конструированию и изготовлению обуви - повторяются снова и снова... правда, только в ненастные дни. Сердца героев начинают приоткрываться друг другу, но на это нужно время, а впереди уже маячит конец сезона дождей...
    AppleStoreCatalogID : 662833100
    Vendor : Apple:vendor_id:2013-730665
    ContentRating : mpaa|PG-13|300|
    iTunMOVI : <?xml version="1.0" encoding="UTF-8"?> / <!DOCTYPE plist PUBLIC "-//Apple//DTD PLIST 1.0//EN" "http://anonym.to/?http://www.apple.com/DTDs/PropertyList-1.0.dtd"> / <plist version="1.0"> / <dict> /  <key>cast</key> /  <array> /   <dict> /    <key>name</key> /    <string>Ирино Мию</string> /   </dict> /   <dict> /    <key>name</key> /    <string>Кана Ханадзава</string> /   </dict> /   <dict> /    <key>name</key> /    <string>Фуми Хирано</string> /   </dict> /   <dict> /    <key>name</key> /    <string>Гоу Маэда</string> /   </dict> /   <dict> /    <key>name</key> /    <string>Юка Тэрасаки</string> /   </dict> /   <dict> /    <key>name</key> /    <string>Сугуру Иноэ</string> /   </dict> /  </array> /  <key>directors</key> /  <array> /   <dict> /    <key>name</key> /    <string>Макото Синкай</string> /   </dict> /  </array> /  <key>producers</key> /  <array> /   <dict> /    <key>name</key> /    <string>Норитака Кавагути</string> /   </dict> /   <dict> /    <key>name</key> /    <string>Дэвид Дель Рио</string> /   </dict> /   <dict> /    <key>name</key> /    <string>Коитиро Ито</string> /   </dict> /  </array> /  <key>screenwriters</key> /  <array> /   <dict> /    <key>name</key> /    <string>Макото Синкай</string> /   </dict> /  </array> /  <key>studio</key> /  <string>Sentai Filmworks</string> / </dict> / </plist>
    Video #1
    ID : 1
    Format : AVC
    Format/Info : Advanced Video Codec
    Format profile : Baseline@L3.0
    Format settings, CABAC : No
    Format settings, ReFrames : 2 frames
    Codec ID : avc1
    Codec ID/Info : Advanced Video Coding
    Duration : 46mn 20s
    Bit rate : 1 500 Kbps
    Width : 640 pixels
    Height : 480 pixels
    Display aspect ratio : 16:9
    Frame rate mode : Variable
    Frame rate : 23.976 fps
    Minimum frame rate : 23.810 fps
    Maximum frame rate : 24.390 fps
    Color space : YUV
    Chroma subsampling : 4:2:0
    Bit depth : 8 bits
    Scan type : Progressive
    Bits/(Pixel*Frame) : 0.204
    Stream size : 497 MiB (79%)
    Writing library : x264 core 130 r2273 b3065e6
    Encoding settings : cabac=0 / ref=2 / deblock=1:0:0 / analyse=0x1:0x111 / me=umh / subme=6 / psy=1 / psy_rd=1.00:0.00 / mixed_ref=1 / me_range=16 / chroma_me=1 / trellis=0 / 8x8dct=0 / cqm=0 / deadzone=21,11 / fast_pskip=1 / chroma_qp_offset=-2 / threads=18 / lookahead_threads=3 / sliced_threads=0 / nr=0 / decimate=1 / interlaced=0 / bluray_compat=0 / constrained_intra=0 / bframes=0 / weightp=0 / keyint=240 / keyint_min=24 / scenecut=40 / intra_refresh=0 / rc_lookahead=40 / rc=2pass / mbtree=1 / bitrate=1500 / ratetol=1.0 / qcomp=0.60 / qpmin=0 / qpmax=69 / qpstep=4 / cplxblur=20.0 / qblur=0.5 / vbv_maxrate=5000 / vbv_bufsize=5000 / nal_hrd=none / ip_ratio=1.40 / aq=1:1.00
    Language : Japanese
    Encoded date : UTC 2014-12-02 13:01:31
    Tagged date : UTC 2014-12-02 13:02:31
    Color primaries : BT.709
    Transfer characteristics : BT.709
    Matrix coefficients : BT.709
    Video #2
    ID : 9
    Format : JPEG
    Codec ID : jpeg
    Duration : 46mn 20s
    Bit rate mode : Variable
    Bit rate : 953 bps
    Width : 640 pixels
    Height : 360 pixels
    Display aspect ratio : 16:9
    Frame rate mode : Variable
    Frame rate : 0.004 fps
    Minimum frame rate : 0.002 fps
    Maximum frame rate : 0.058 fps
    Color space : YUV
    Chroma subsampling : 4:2:0
    Bit depth : 8 bits
    Compression mode : Lossy
    Bits/(Pixel*Frame) : 1.034
    Stream size : 349 KiB (0%)
    Language : Japanese
    Encoded date : UTC 2014-12-02 14:14:35
    Tagged date : UTC 2014-12-02 14:14:35
    Audio #1
    ID : 2
    Format : AAC
    Format/Info : Advanced Audio Codec
    Format profile : LC
    Codec ID : 40
    Duration : 46mn 5s
    Bit rate mode : Variable
    Bit rate : 132 Kbps
    Maximum bit rate : 227 Kbps
    Channel(s) : 2 channels
    Channel positions : Front: L R
    Sampling rate : 48.0 KHz
    Compression mode : Lossy
    Stream size : 43.3 MiB (7%)
    Language : Russian
    Encoded date : UTC 2014-12-02 13:01:31
    Tagged date : UTC 2014-12-02 13:02:35
    Audio #2
    ID : 3
    Format : AAC
    Format/Info : Advanced Audio Codec
    Format profile : LC
    Codec ID : 40
    Duration : 46mn 5s
    Bit rate mode : Variable
    Bit rate : 132 Kbps
    Maximum bit rate : 223 Kbps
    Channel(s) : 2 channels
    Channel positions : Front: L R
    Sampling rate : 48.0 KHz
    Compression mode : Lossy
    Stream size : 43.3 MiB (7%)
    Language : Japanese
    Encoded date : UTC 2014-12-02 13:01:31
    Tagged date : UTC 2014-12-02 13:02:35
    Audio #3
    ID : 4
    Format : AAC
    Format/Info : Advanced Audio Codec
    Format profile : LC
    Codec ID : 40
    Duration : 46mn 5s
    Bit rate mode : Variable
    Bit rate : 126 Kbps
    Maximum bit rate : 199 Kbps
    Channel(s) : 2 channels
    Channel positions : Front: L R
    Sampling rate : 48.0 KHz
    Compression mode : Lossy
    Stream size : 41.5 MiB (7%)
    Language : Japanese
    Encoded date : UTC 2014-12-02 13:01:31
    Tagged date : UTC 2014-12-02 13:01:35
    Text #1
    ID : 5
    Format : Timed Text
    Muxing mode : sbtl
    Codec ID : tx3g
    Duration : 45mn 24s
    Bit rate mode : Variable
    Bit rate : 10 bps
    Stream size : 3.46 KiB (0%)
    Language : Russian
    Encoded date : UTC 2014-12-02 13:01:31
    Tagged date : UTC 2014-12-02 13:01:31
    Text #2
    ID : 6
    Format : Timed Text
    Muxing mode : sbtl
    Codec ID : tx3g
    Duration : 45mn 51s
    Bit rate mode : Variable
    Bit rate : 79 bps
    Stream size : 26.6 KiB (0%)
    Language : Russian
    Encoded date : UTC 2014-12-02 13:01:31
    Tagged date : UTC 2014-12-02 13:01:31
    Text #3
    ID : 7
    Format : Timed Text
    Muxing mode : sbtl
    Codec ID : tx3g
    Duration : 45mn 53s
    Bit rate mode : Variable
    Bit rate : 168 bps
    Stream size : 56.5 KiB (0%)
    Language : Russian
    Encoded date : UTC 2014-12-02 14:12:57
    Tagged date : UTC 2014-12-02 14:12:57
    Menu #1
    00:00:00.000 : 1
    00:00:17.309 : 2
    00:05:16.775 : 3
    00:10:10.026 : 4
    00:13:10.707 : 5
    00:18:29.900 : 6
    00:25:19.685 : 7
    00:29:21.927 : 8
    00:37:07.392 : 9
    00:40:34.724 : 10
    00:44:54.525 : 11
    00:46:00.549 : 12
    Menu #2
    ID : 8
    Codec ID : text
    Duration : 46mn 20s
    Language : Japanese
    Encoded date : UTC 2014-12-02 14:14:33
    Tagged date : UTC 2014-12-02 14:14:33
    00:00:00.000 : 1
    00:00:17.309 : 2
    00:05:16.775 : 3
    00:10:10.026 : 4
    00:13:10.707 : 5
    00:18:29.900 : 6
    00:25:19.685 : 7
    00:29:21.927 : 8
    00:37:07.392 : 9
    00:40:34.724 : 10
    00:44:54.525 : 11
    00:46:00.549 : 12
    Bit rate mode : VBR

    MediaInfo 720p Release

    General
    Complete name : The Garden of Words (HD).m4v
    Format : MPEG-4
    Codec ID : M4V
    File size : 1.88 GiB
    Duration : 46mn 20s
    Overall bit rate mode : Variable
    Overall bit rate : 5 795 Kbps
    Movie name : The Garden of Words
    Performer : Makoto Shinkai
    Genre : Anime
    ContentType : Short Film
    Description : Юноша по имени Такао встречает таинственную молодую женщину. Их случайные и как будто ни к чему не ведущие встречи в парке, где Такао прогуливает занятия, работая над достижением своей странной мечты - посвятить жизнь конструированию и изготовлению обуви - повторяются снова и снова... правда, только в ненастные дни. Сердца героев начинают приоткрываться друг другу, но на это нужно время, а впереди уже маячит конец сезона дождей...
    Recorded date : UTC 2013-05-31 08:00:00
    Encoded date : UTC 2014-12-02 09:15:15
    Tagged date : UTC 2014-12-02 14:14:50
    Copyright : © 2013 Makoto Shinkai / CoMix Wave Films
    Cover : Yes
    Rating : None
    Title/Sort : Garden of Words
    LongDescription : Юноша по имени Такао встречает таинственную молодую женщину. Их случайные и как будто ни к чему не ведущие встречи в парке, где Такао прогуливает занятия, работая над достижением своей странной мечты - посвятить жизнь конструированию и изготовлению обуви - повторяются снова и снова... правда, только в ненастные дни. Сердца героев начинают приоткрываться друг другу, но на это нужно время, а впереди уже маячит конец сезона дождей...
    HDVideo : Yes
    AppleStoreCatalogID : 662833100
    Vendor : Apple:vendor_id:2013-730665
    ContentRating : mpaa|PG-13|300|
    iTunMOVI : <?xml version="1.0" encoding="UTF-8"?> / <!DOCTYPE plist PUBLIC "-//Apple//DTD PLIST 1.0//EN" "http://anonym.to/?http://www.apple.com/DTDs/PropertyList-1.0.dtd"> / <plist version="1.0"> / <dict> /  <key>cast</key> /  <array> /   <dict> /    <key>name</key> /    <string>Ирино Мию</string> /   </dict> /   <dict> /    <key>name</key> /    <string>Кана Ханадзава</string> /   </dict> /   <dict> /    <key>name</key> /    <string>Фуми Хирано</string> /   </dict> /   <dict> /    <key>name</key> /    <string>Гоу Маэда</string> /   </dict> /   <dict> /    <key>name</key> /    <string>Юка Тэрасаки</string> /   </dict> /   <dict> /    <key>name</key> /    <string>Сугуру Иноэ</string> /   </dict> /  </array> /  <key>directors</key> /  <array> /   <dict> /    <key>name</key> /    <string>Макото Синкай</string> /   </dict> /  </array> /  <key>producers</key> /  <array> /   <dict> /    <key>name</key> /    <string>Норитака Кавагути</string> /   </dict> /   <dict> /    <key>name</key> /    <string>Дэвид Дель Рио</string> /   </dict> /   <dict> /    <key>name</key> /    <string>Коитиро Ито</string> /   </dict> /  </array> /  <key>screenwriters</key> /  <array> /   <dict> /    <key>name</key> /    <string>Макото Синкай</string> /   </dict> /  </array> /  <key>studio</key> /  <string>Sentai Filmworks</string> / </dict> / </plist>
    Video #1
    ID : 1
    Format : AVC
    Format/Info : Advanced Video Codec
    Format profile : High@L3.1
    Format settings, CABAC : No
    Format settings, ReFrames : 3 frames
    Codec ID : avc1
    Codec ID/Info : Advanced Video Coding
    Duration : 46mn 20s
    Bit rate : 4 000 Kbps
    Width : 1 280 pixels
    Height : 720 pixels
    Display aspect ratio : 16:9
    Frame rate mode : Variable
    Frame rate : 23.976 fps
    Minimum frame rate : 23.810 fps
    Maximum frame rate : 24.390 fps
    Color space : YUV
    Chroma subsampling : 4:2:0
    Bit depth : 8 bits
    Scan type : Progressive
    Bits/(Pixel*Frame) : 0.181
    Stream size : 1.29 GiB (69%)
    Writing library : x264 core 130 r2273 b3065e6
    Encoding settings : cabac=0 / ref=3 / deblock=1:0:0 / analyse=0x3:0x113 / me=umh / subme=9 / psy=1 / psy_rd=0.80:0.00 / mixed_ref=1 / me_range=32 / chroma_me=1 / trellis=0 / 8x8dct=1 / cqm=0 / deadzone=21,11 / fast_pskip=0 / chroma_qp_offset=-2 / threads=18 / lookahead_threads=1 / sliced_threads=0 / nr=0 / decimate=0 / interlaced=0 / bluray_compat=0 / constrained_intra=0 / bframes=3 / b_pyramid=0 / b_adapt=2 / b_bias=0 / direct=1 / weightb=0 / open_gop=0 / weightp=0 / keyint=240 / keyint_min=24 / scenecut=40 / intra_refresh=0 / rc_lookahead=40 / rc=2pass / mbtree=1 / bitrate=4000 / ratetol=1.0 / qcomp=0.70 / qpmin=0 / qpmax=69 / qpstep=4 / cplxblur=20.0 / qblur=0.5 / vbv_maxrate=9500 / vbv_bufsize=9500 / nal_hrd=none / ip_ratio=1.40 / aq=1:1.10
    Language : Japanese
    Encoded date : UTC 2014-12-02 09:15:15
    Tagged date : UTC 2014-12-02 09:17:29
    Color primaries : BT.709
    Transfer characteristics : BT.709
    Matrix coefficients : BT.709
    Video #2
    ID : 11
    Format : JPEG
    Codec ID : jpeg
    Duration : 46mn 20s
    Bit rate mode : Variable
    Bit rate : 1 012 bps
    Width : 640 pixels
    Height : 360 pixels
    Display aspect ratio : 16:9
    Frame rate mode : Variable
    Frame rate : 0.004 fps
    Minimum frame rate : 0.002 fps
    Maximum frame rate : 0.058 fps
    Color space : YUV
    Chroma subsampling : 4:2:0
    Bit depth : 8 bits
    Compression mode : Lossy
    Bits/(Pixel*Frame) : 1.098
    Stream size : 371 KiB (0%)
    Language : Japanese
    Encoded date : UTC 2014-12-02 14:14:08
    Tagged date : UTC 2014-12-02 14:14:08
    Audio #1
    ID : 2
    Format : AAC
    Format/Info : Advanced Audio Codec
    Format profile : LC
    Codec ID : 40
    Duration : 46mn 5s
    Bit rate mode : Variable
    Bit rate : 197 Kbps
    Maximum bit rate : 307 Kbps
    Channel(s) : 2 channels
    Channel positions : Front: L R
    Sampling rate : 48.0 KHz
    Compression mode : Lossy
    Stream size : 65.0 MiB (3%)
    Language : Russian
    Encoded date : UTC 2014-12-02 09:15:15
    Tagged date : UTC 2014-12-02 09:17:34
    Audio #2
    ID : 3
    Format : AAC
    Format/Info : Advanced Audio Codec
    Format profile : LC
    Codec ID : 40
    Duration : 46mn 5s
    Bit rate mode : Variable
    Bit rate : 197 Kbps
    Maximum bit rate : 301 Kbps
    Channel(s) : 2 channels
    Channel positions : Front: L R
    Sampling rate : 48.0 KHz
    Compression mode : Lossy
    Stream size : 65.0 MiB (3%)
    Language : Japanese
    Encoded date : UTC 2014-12-02 09:15:15
    Tagged date : UTC 2014-12-02 09:17:34
    Audio #3
    ID : 4
    Format : AAC
    Format/Info : Advanced Audio Codec
    Format profile : LC
    Codec ID : 40
    Duration : 46mn 5s
    Bit rate mode : Variable
    Bit rate : 126 Kbps
    Maximum bit rate : 199 Kbps
    Channel(s) : 2 channels
    Channel positions : Front: L R
    Sampling rate : 48.0 KHz
    Compression mode : Lossy
    Stream size : 41.5 MiB (2%)
    Language : Japanese
    Encoded date : UTC 2014-12-02 12:43:13
    Tagged date : UTC 2014-12-02 12:43:15
    Audio #4
    ID : 5
    Format : AC-3
    Format/Info : Audio Coding 3
    Mode extension : CM (complete main)
    Format settings, Endianness : Big
    Codec ID : ac-3
    Duration : 46mn 5s
    Bit rate mode : Constant
    Bit rate : 640 Kbps
    Channel(s) : 6 channels
    Channel positions : Front: L C R, Side: L R, LFE
    Sampling rate : 48.0 KHz
    Bit depth : 16 bits
    Compression mode : Lossy
    Stream size : 211 MiB (11%)
    Language : Russian
    Encoded date : UTC 2014-12-02 12:45:21
    Tagged date : UTC 2014-12-02 12:45:37
    Audio #5
    ID : 6
    Format : AC-3
    Format/Info : Audio Coding 3
    Mode extension : CM (complete main)
    Format settings, Endianness : Big
    Codec ID : ac-3
    Duration : 46mn 5s
    Bit rate mode : Constant
    Bit rate : 640 Kbps
    Channel(s) : 6 channels
    Channel positions : Front: L C R, Side: L R, LFE
    Sampling rate : 48.0 KHz
    Bit depth : 16 bits
    Compression mode : Lossy
    Stream size : 211 MiB (11%)
    Language : Japanese
    Encoded date : UTC 2014-12-02 12:45:21
    Tagged date : UTC 2014-12-02 12:45:37
    Text #1
    ID : 7
    Format : Timed Text
    Muxing mode : sbtl
    Codec ID : tx3g
    Duration : 45mn 24s
    Bit rate mode : Variable
    Bit rate : 10 bps
    Stream size : 3.46 KiB (0%)
    Language : Russian
    Encoded date : UTC 2014-12-02 12:58:11
    Tagged date : UTC 2014-12-02 12:58:11
    Text #2
    ID : 8
    Format : Timed Text
    Muxing mode : sbtl
    Codec ID : tx3g
    Duration : 45mn 51s
    Bit rate mode : Variable
    Bit rate : 79 bps
    Stream size : 26.6 KiB (0%)
    Language : Russian
    Encoded date : UTC 2014-12-02 12:58:11
    Tagged date : UTC 2014-12-02 12:58:11
    Text #3
    ID : 9
    Format : Timed Text
    Muxing mode : sbtl
    Codec ID : tx3g
    Duration : 45mn 53s
    Bit rate mode : Variable
    Bit rate : 168 bps
    Stream size : 56.5 KiB (0%)
    Language : Russian
    Encoded date : UTC 2014-12-02 14:12:49
    Tagged date : UTC 2014-12-02 14:12:49
    Menu #1
    00:00:00.000 : 1
    00:00:17.309 : 2
    00:05:16.775 : 3
    00:10:10.026 : 4
    00:13:10.707 : 5
    00:18:29.900 : 6
    00:25:19.685 : 7
    00:29:21.927 : 8
    00:37:07.392 : 9
    00:40:34.724 : 10
    00:44:54.525 : 11
    00:46:00.549 : 12
    Menu #2
    ID : 10
    Codec ID : text
    Duration : 46mn 20s
    Language : Japanese
    Encoded date : UTC 2014-12-02 14:14:05
    Tagged date : UTC 2014-12-02 14:14:05
    00:00:00.000 : 1
    00:00:17.309 : 2
    00:05:16.775 : 3
    00:10:10.026 : 4
    00:13:10.707 : 5
    00:18:29.900 : 6
    00:25:19.685 : 7
    00:29:21.927 : 8
    00:37:07.392 : 9
    00:40:34.724 : 10
    00:44:54.525 : 11
    00:46:00.549 : 12
    Bit rate mode : VBR

    x264 лог 480p Release

    HandBrakeCLI -i "The.Garden.of.Words.mkv" -t 1 -o "The.Garden.of.Words.480p.eng.m4v" -f mp4 -I -O -w 640 -l 480 --crop 0:0:0:0 --custom-anamorphic --modulus 16 --pixel-aspect 852:640 -e x264 -b 1500 -2 -a none -x cabac=0:ref=2:me=umh:bframes=0:weightp=0:subq=6:8x8dct=0:trellis=0:vbv-maxrate=5000:vbv-bufsize=5000 --verbose=1
    x264 [info]: frame I:756   Avg QP:16.76  size: 43300  PSNR Mean Y:48.34 U:52.07 V:52.23 Avg:49.14 Global:47.62
    x264 [info]: frame P:65900 Avg QP:19.50  size:  7404  PSNR Mean Y:45.60 U:49.64 V:50.02 Avg:46.49 Global:44.63
    x264 [info]: mb I  I16..4: 25.8%  0.0% 74.2%
    x264 [info]: mb P  I16..4:  0.9%  0.0%  3.3%  P16..4: 28.9% 13.3%  5.7%  0.0%  0.0%    skip:47.9%
    x264 [info]: coded y,uvDC,uvAC intra: 73.1% 56.9% 32.8% inter: 20.7% 10.3% 2.6%
    x264 [info]: i16 v,h,dc,p: 57% 15%  8% 20%
    x264 [info]: i4 v,h,dc,ddl,ddr,vr,hd,vl,hu: 42% 12% 14%  5%  5%  8%  4%  6%  4%
    x264 [info]: i8c dc,h,v,p: 55% 16% 24%  5%
    x264 [info]: ref P L0: 64.0% 36.0%
    x264 [info]: SSIM Mean Y:0.9870520 (18.878db)
    x264 [info]: PSNR Mean Y:45.634 U:49.667 V:50.041 Avg:46.523 Global:44.653 kb/s:1498.32

    x264 лог 720p Release

    HandBrakeCLI -i "The.Garden.of.Words.mkv" -t 1 -o "The.Garden.of.Words.720p.eng.m4v" -f mp4 -4 -O -w 1280 -l 720 --crop 0:0:0:0 --modulus 16 -e x264 -b 4000 -2 -a none -x cabac=0:ref=3:me=umh:b-pyramid=none:b-adapt=2:weightb=0:trellis=0:weightp=0:vbv-maxrate=9500:vbv-bufsize=9500:subq=9:merange=32:deblock=0,0:qcomp=0.70:qpmin=0:qpmax=69:fast_pskip=0:aq-strength=1.1:no-dct-decimate=1:psy-rd=0.80,0.00:ip_ratio=1.30:pb_ratio=1.00 --verbose=1
    x264 [info]: frame I:557   Avg QP:12.66  size:157401  PSNR Mean Y:50.77 U:53.78 V:53.87 Avg:51.48 Global:50.22
    x264 [info]: frame P:23458 Avg QP:15.23  size: 33414  PSNR Mean Y:48.37 U:52.18 V:52.37 Avg:49.23 Global:47.53
    x264 [info]: frame B:42641 Avg QP:18.06  size: 12078  PSNR Mean Y:47.90 U:52.34 V:52.55 Avg:48.84 Global:46.56
    x264 [info]: consecutive B-frames:  3.0% 25.1% 29.7% 42.2%
    x264 [info]: mb I  I16..4: 12.0% 36.1% 51.9%
    x264 [info]: mb P  I16..4:  2.4%  3.9%  4.1%  P16..4: 42.0% 17.8%  8.4%  0.0%  0.0%    skip:21.4%
    x264 [info]: mb B  I16..4:  0.4%  1.1%  1.6%  B16..8: 27.4%  9.6%  1.9%  direct: 4.8%  skip:53.1%  L0:48.0% L1:44.4% BI: 7.5%
    x264 [info]: 8x8 transform intra:36.9% inter:33.2%
    x264 [info]: coded y,uvDC,uvAC intra: 74.7% 61.2% 40.5% inter: 18.3% 11.8% 7.7%
    x264 [info]: i16 v,h,dc,p: 67% 11%  5% 16%
    x264 [info]: i8 v,h,dc,ddl,ddr,vr,hd,vl,hu: 19% 10% 11%  8% 11% 12% 10%  9% 10%
    x264 [info]: i4 v,h,dc,ddl,ddr,vr,hd,vl,hu: 26% 11%  9%  8% 11% 12%  9%  8%  7%
    x264 [info]: i8c dc,h,v,p: 54% 18% 20%  8%
    x264 [info]: ref P L0: 62.8% 22.2% 15.0%
    x264 [info]: ref B L0: 67.7% 32.3%
    x264 [info]: SSIM Mean Y:0.9906845 (20.308db)
    x264 [info]: PSNR Mean Y:48.087 U:52.296 V:52.497 Avg:49.001 Global:46.903 kb/s:3989.76

    Скриншоты 480p Release

    Скриншоты 720p Release

    Цитата:
    Цитата:

    • Выражается ОГРОМНАЯ благодарность компании Реанимедия за появление этого диска на свет. Только благодаря им в России до сих пор выпускаются аниме релизы. На следующий год у них запланировано еще много интересных релизов. Для того чтобы дела компании шли хорошо и они и дальше нас радовали новыми релизами - поддержите компанию, купите это издание в их магазине - Магазин Otaku.
    -

    Релиз подготовлен для просмотра на Apple TV, iPad, iPhone, iPod Touch.
    Для просмотра данного релиза на компьютере с ОС Windows рекомендуется использовать VLC media player
    Скачать .torrent

    Скачать торрент-файл бесплатно и на максимальной скорости!

    Как скачивать? · Что такое торрент? · Рейтинг и ограничения

    !ВНИМАНИЕ!
    Сайт не распространяет и не хранит электронные версии произведений, а занимается лишь лишь предоставлением доступа к создаваемому пользователями каталогу ссылок на торрент-файлы, которые содержат только списки хеш-сумм, убедительная просьба с жалобами обращаться напрямую к пользователю. Файлы для обмена на трекере предоставлены пользователями сайта, и администрация не несёт ответственности за их содержание. Просьба не заливать файлы, защищенные авторскими правами, а также файлы нелегального содержания!


    _________________
    [Профиль] [ЛС]
    Показать сообщения:    
    Ответить на тему

    Текущее время: Сегодня, в 20:29

    Часовой пояс: GMT + 2



    Вы не можете начинать темы
    Вы не можете отвечать на сообщения
    Вы не можете редактировать свои сообщения
    Вы не можете удалять свои сообщения
    Вы не можете голосовать в опросах
    Вы не можете прикреплять файлы к сообщениям
    Вы не можете скачивать файлы