BitTorrentTracker PerecTracker.org
BitTorrentTracker PerecTracker.org
    
Регистрация  ·  Вход
 
 · 
Забыли пароль?

  • Робин Гуд / Robin Hood (Вольфганг Райтерман) [1973, США, мультфильм, мелодрама, комедия, приключения, семейный, BDRip HD (720p), SD] DUB, MVO, AVO, Original + SUB (rus, eng)

    Ответить на тему
     
    Автор Сообщение

    Light

    Создавать темы 07-Янв-2016 04:26

           

    [Цитировать]

    Робин Гуд / Robin Hood
    "The way it REALLY happened..."
    8.066 / 10
    -Год выпуска: 1973
    Страна: США
    Жанр: мультфильм, мелодрама, комедия, приключения, семейный
    Продолжительность: 83 мин.
    Перевод: Профессиональный дублированный перевод, многоголосый закадровый перевод и одноголосый закадровый авторский перевод
    Оригинальная аудиодорожка: Есть
    Cубтитры: Русские форсированные, русские (только песни), русские полные, английские (только песни), английские (только песни) SDH, английские полные и английские полные SDH
    Режиссёр: Вольфганг Райтерман
    Сценарий: Ларри Клеммонс, Кен Андерсон
    Продюсер: Вольфганг Райтерман
    Композитор: Джордж Брунс
    Художник: Дон Гриффит
    Монтаж: Том Акоста, Джеймс Мелтон
    В ролях: Роджер Миллер, Питер Устинов, Терри-Томас, Брайан Бедфорд, Моника Эванс, Фил Харрис, Энди Дивайн, Кэрол Шелли, Пэт Баттрем, Джордж Линдси
    Роли дублировали: Алексей Иващенко, Алексей Борзунов, Александр Леньков, Игорь Ливанов, Елена Соловьева
    Бюджет: $15 000 000
    Сборы в США: $32 056 467
    Мировая премьера: 8 ноября 1973
    Релиз на Blu-Ray: 9 июня 2015, Уолт Дисней Компани СНГ
    Релиз на DVD: 3 августа 2009, CP-Digital
    Описание: Добро пожаловать в дремучий Шервудский лес, где ты встретишь храброго и забавного лисенка по имени Робин Гуд и его лучшего друга Крошку Джона - большого добродушного медведя.
    Эту веселую компанию давно разыскивает шериф Нотингема. Он готовит друзьям ловушку: на турнире лучников Робин Гуда будет ждать засада. Но отважный лисенок все равно собирается участвовать в состязании: ведь только там у него есть шанс увидеть красавицу Мариан.
    И вот турнир начался, однако шериф никак не может узнать среди участников переодетого Робин Гуда. Правда, один точный выстрел способен сразу выдать самого лучшего стрелка в королевстве.-Качество исходника: Blu-Ray 1080p (HDClub)
    Качество: BDRip
    Тип: 480p 720p
    Контейнер: m4v
    Видео: 6400x480 анаморф 800x480 at 23.976 fps, MPEG-4 AVC, ~1500 kbps avg
    Видео: 1200x720 at 23.976 fps, MPEG-4 AVC, ~4200 kbps avg
    Аудио#1: Russian: 48 kHz, ААС, 2/0 (L,R), ~128.00 / 192.00 kbps avg |Дубляж, студия Пифагор|
    Аудио#2: Russian: 48 kHz, ААС, 2/0 (L,R), ~128.00 / 192.00 kbps avg |Многоголосый закадровый, Карусель|
    Аудио#3: Russian: 48 kHz, ААС, 2/0 (L,R), ~128.00 / 192.00 kbps avg |Многоголосый закадровый, НТВ|
    Аудио#4: Russian: 48 kHz, ААС, 2/0 (L,R), ~128.00 / 192.00 kbps avg |Одноголосый закадровый, А. Михалёв (новый перевод)|
    Аудио#5: Russian: 48 kHz, ААС, 2/0 (L,R), ~128.00 / 192.00 kbps avg |Одноголосый закадровый, А. Михалёв (старый перевод)|
    Аудио#6: Russian: 48 kHz, ААС, 2/0 (L,R), ~128.00 / 192.00 kbps avg |Одноголосый закадровый, Л. Володарский|
    Аудио#7: English: 48 kHz, ААС, 2/0 (L,R), ~128.00 / 192.00 kbps avg
    Аудио#8: Russian: 48 kHz, AC3, 3/2 (L,C,R,l,r) + LFE ch, ~640.00 kbps avg |Многоголосый закадровый, Карусель|
    Аудио#9: English: 48 kHz, AC3, 3/2 (L,C,R,l,r) + LFE ch, ~640.00 kbps avg
    Субтитры №1: Russian: |Форсированные, Blu-Ray CCE|
    Субтитры №2: Russian: |Только песни, Blu-Ray CCE|
    Субтитры №3: Russian: |Полные, Blu-Ray CCE|
    Субтитры №4: English: |Только песни, Blu-Ray CCE|
    Субтитры №5: English: |Только песни SDH, Blu-Ray CCE|
    Субтитры №6: English: |Полные, Blu-Ray CCE|
    Субтитры №7: English: |Полные SDH, Blu-Ray CCE|-

    Ошибки в фильме

    • На 36 минуте принц Джон вытягивает руку, на которой виден один перстень с драгоценным камнем, но на крупном плане перстней становится три, а затем, на среднем плане, перстень снова только один. Через несколько минут на пальцах принца Джона вообще больше не видно перстней.

    -

    iTunes Meta Tags for country us

    Name: Robin Hood
    Artist: Wolfgang Reitherman
    Genre: Action & Adventure
    Release Date: 1973-11-08T08:00:00Z
    Description: Добро пожаловать в дремучий Шервудский лес, где ты встретишь храброго и забавного лисенка по имени Робин Гуд и его лучшего друга Крошку Джона - большого добродушного медведя.
    Long Description: Добро пожаловать в дремучий Шервудский лес, где ты встретишь храброго и забавного лисенка по имени Робин Гуд и его лучшего друга Крошку Джона - большого добродушного медведя.
    Эту веселую компанию давно разыскивает шериф Нотингема. Он готовит друзьям ловушку: на турнире лучников Робин Гуда будет ждать засада. Но отважный лисенок все равно собирается участвовать в состязании: ведь только там у него есть шанс увидеть красавицу Мариан.
    И вот турнир начался, однако шериф никак не может узнать среди участников переодетого Робин Гуда. Правда, один точный выстрел способен сразу выдать самого лучшего стрелка в королевстве.
    Rating: G
    Studio: Walt Disney Pictures
    Cast: Роджер Миллер, Питер Устинов, Терри-Томас, Брайан Бедфорд, Моника Эванс, Фил Харрис, Энди Дивайн, Кэрол Шелли, Пэт Баттрем, Джордж Линдси
    Director: Вольфганг Райтерман
    Producers: Вольфганг Райтерман
    Screenwriters: Ларри Клеммонс, Кен Андерсон
    Copyright: © 1973 Disney Enterprises, Inc. All Rights Reserved.
    contentID: 656527876
    XID: Apple:vendor_id:1973-17579
    Sort Name: Robin Hood

    MediaInfo 480p Release

    General
    Complete name : Robin Hood.m4v
    Format : MPEG-4
    Codec ID : M4V
    File size : 1.37 GiB
    Duration : 1h 23mn
    Overall bit rate mode : Variable
    Overall bit rate : 2 349 Kbps
    Movie name : Robin Hood
    Performer : Wolfgang Reitherman
    Genre : Action & Adventure
    ContentType : Short Film
    Description : Добро пожаловать в дремучий Шервудский лес, где ты встретишь храброго и забавного лисенка по имени Робин Гуд и его лучшего друга Крошку Джона - большого добродушного медведя.
    Recorded date : UTC 1973-11-08 08:00:00
    Encoded date : UTC 2015-01-16 07:13:42
    Tagged date : UTC 2015-01-18 16:30:01
    Copyright : © 1973 Disney Enterprises, Inc. All Rights Reserved.
    Cover : Yes
    Rating : None
    Title/Sort : Robin Hood
    LongDescription : Добро пожаловать в дремучий Шервудский лес, где ты встретишь храброго и забавного лисенка по имени Робин Гуд и его лучшего друга Крошку Джона - большого добродушного медведя. / Эту веселую компанию давно разыскивает шериф Нотингема. Он готовит друзьям ловушку: на турнире лучников Робин Гуда будет ждать засада. Но отважный лисенок все равно собирается участвовать в состязании: ведь только там у него есть шанс увидеть красавицу Мариан. / И вот турнир начался, однако шериф никак не может узнать среди участников переодетого Робин Гуда. Правда, один точный выстрел способен сразу выдать самого лучшего стрелка в королевстве.
    AppleStoreCatalogID : 656527876
    Vendor : Apple:vendor_id:1973-17579
    ContentRating : mpaa|G|100|
    iTunMOVI : <?xml version="1.0" encoding="UTF-8"?> / <!DOCTYPE plist PUBLIC "-//Apple//DTD PLIST 1.0//EN" "http://anonym.to/?http://www.apple.com/DTDs/PropertyList-1.0.dtd"> / <plist version="1.0"> / <dict> /  <key>cast</key> /  <array> /   <dict> /    <key>name</key> /    <string>Роджер Миллер</string> /   </dict> /   <dict> /    <key>name</key> /    <string>Питер Устинов</string> /   </dict> /   <dict> /    <key>name</key> /    <string>Терри-Томас</string> /   </dict> /   <dict> /    <key>name</key> /    <string>Брайан Бедфорд</string> /   </dict> /   <dict> /    <key>name</key> /    <string>Моника Эванс</string> /   </dict> /   <dict> /    <key>name</key> /    <string>Фил Харрис</string> /   </dict> /   <dict> /    <key>name</key> /    <string>Энди Дивайн</string> /   </dict> /   <dict> /    <key>name</key> /    <string>Кэрол Шелли</string> /   </dict> /   <dict> /    <key>name</key> /    <string>Пэт Баттрем</string> /   </dict> /   <dict> /    <key>name</key> /    <string>Джордж Линдси</string> /   </dict> /  </array> /  <key>directors</key> /  <array> /   <dict> /    <key>name</key> /    <string>Вольфганг Райтерман</string> /   </dict> /  </array> /  <key>producers</key> /  <array> /   <dict> /    <key>name</key> /    <string>Вольфганг Райтерман</string> /   </dict> /  </array> /  <key>screenwriters</key> /  <array> /   <dict> /    <key>name</key> /    <string>Ларри Клеммонс</string> /   </dict> /   <dict> /    <key>name</key> /    <string>Кен Андерсон</string> /   </dict> /  </array> /  <key>studio</key> /  <string>Walt Disney Pictures</string> / </dict> / </plist>
    Video #1
    ID : 1
    Format : AVC
    Format/Info : Advanced Video Codec
    Format profile : Baseline@L3.0
    Format settings, CABAC : No
    Format settings, ReFrames : 2 frames
    Codec ID : avc1
    Codec ID/Info : Advanced Video Coding
    Duration : 1h 23mn
    Bit rate : 1 500 Kbps
    Width : 640 pixels
    Height : 480 pixels
    Display aspect ratio : 1.667
    Frame rate mode : Variable
    Frame rate : 23.976 fps
    Minimum frame rate : 11.987 fps
    Maximum frame rate : 23.981 fps
    Color space : YUV
    Chroma subsampling : 4:2:0
    Bit depth : 8 bits
    Scan type : Progressive
    Bits/(Pixel*Frame) : 0.204
    Stream size : 891 MiB (63%)
    Writing library : x264 core 130 r2273 b3065e6
    Encoding settings : cabac=0 / ref=2 / deblock=1:0:0 / analyse=0x1:0x111 / me=umh / subme=6 / psy=1 / psy_rd=1.00:0.00 / mixed_ref=1 / me_range=16 / chroma_me=1 / trellis=0 / 8x8dct=0 / cqm=0 / deadzone=21,11 / fast_pskip=1 / chroma_qp_offset=-2 / threads=18 / lookahead_threads=3 / sliced_threads=0 / nr=0 / decimate=1 / interlaced=0 / bluray_compat=0 / constrained_intra=0 / bframes=0 / weightp=0 / keyint=240 / keyint_min=24 / scenecut=40 / intra_refresh=0 / rc_lookahead=40 / rc=2pass / mbtree=1 / bitrate=1500 / ratetol=1.0 / qcomp=0.60 / qpmin=0 / qpmax=69 / qpstep=4 / cplxblur=20.0 / qblur=0.5 / vbv_maxrate=5000 / vbv_bufsize=5000 / nal_hrd=none / ip_ratio=1.40 / aq=1:1.00
    Language : English
    Encoded date : UTC 2015-01-16 07:13:42
    Tagged date : UTC 2015-01-16 07:17:06
    Color primaries : BT.709
    Transfer characteristics : BT.709
    Matrix coefficients : BT.709
    Video #2
    ID : 17
    Format : JPEG
    Codec ID : jpeg
    Duration : 1h 23mn
    Bit rate mode : Variable
    Bit rate : 1 761 bps
    Width : 640 pixels
    Height : 384 pixels
    Display aspect ratio : 1.667
    Frame rate mode : Variable
    Frame rate : 0.003 fps
    Minimum frame rate : 0.001 fps
    Maximum frame rate : 0.008 fps
    Color space : YUV
    Chroma subsampling : 4:2:0
    Bit depth : 8 bits
    Compression mode : Lossy
    Bits/(Pixel*Frame) : 2.389
    Stream size : 1.05 MiB (0%)
    Language : English
    Encoded date : UTC 2015-01-18 16:21:09
    Tagged date : UTC 2015-01-18 16:21:09
    Audio #1
    ID : 2
    Format : AAC
    Format/Info : Advanced Audio Codec
    Format profile : LC
    Codec ID : 40
    Duration : 1h 23mn
    Bit rate mode : Variable
    Bit rate : 129 Kbps
    Maximum bit rate : 162 Kbps
    Channel(s) : 2 channels
    Channel positions : Front: L R
    Sampling rate : 48.0 KHz
    Compression mode : Lossy
    Stream size : 76.8 MiB (5%)
    Language : Russian
    Encoded date : UTC 2015-01-16 07:13:42
    Tagged date : UTC 2015-01-16 07:17:39
    Audio #2
    ID : 3
    Format : AAC
    Format/Info : Advanced Audio Codec
    Format profile : LC
    Codec ID : 40
    Duration : 1h 23mn
    Bit rate mode : Variable
    Bit rate : 129 Kbps
    Maximum bit rate : 180 Kbps
    Channel(s) : 2 channels
    Channel positions : Front: L R
    Sampling rate : 48.0 KHz
    Compression mode : Lossy
    Stream size : 76.4 MiB (5%)
    Language : Russian
    Encoded date : UTC 2015-01-16 07:13:42
    Tagged date : UTC 2015-01-16 07:17:40
    Audio #3
    ID : 4
    Format : AAC
    Format/Info : Advanced Audio Codec
    Format profile : LC
    Codec ID : 40
    Duration : 1h 23mn
    Bit rate mode : Variable
    Bit rate : 108 Kbps
    Maximum bit rate : 130 Kbps
    Channel(s) : 2 channels
    Channel positions : Front: L R
    Sampling rate : 48.0 KHz
    Compression mode : Lossy
    Stream size : 64.8 MiB (5%)
    Language : Russian
    Encoded date : UTC 2015-01-16 07:13:42
    Tagged date : UTC 2015-01-16 07:17:38
    Audio #4
    ID : 5
    Format : AAC
    Format/Info : Advanced Audio Codec
    Format profile : LC
    Codec ID : 40
    Duration : 1h 23mn
    Bit rate mode : Variable
    Bit rate : 132 Kbps
    Maximum bit rate : 194 Kbps
    Channel(s) : 2 channels
    Channel positions : Front: L R
    Sampling rate : 48.0 KHz
    Compression mode : Lossy
    Stream size : 78.0 MiB (6%)
    Language : Russian
    Encoded date : UTC 2015-01-16 07:13:42
    Tagged date : UTC 2015-01-16 07:17:40
    Audio #5
    ID : 6
    Format : AAC
    Format/Info : Advanced Audio Codec
    Format profile : LC
    Codec ID : 40
    Duration : 1h 23mn
    Bit rate mode : Variable
    Bit rate : 113 Kbps
    Maximum bit rate : 125 Kbps
    Channel(s) : 2 channels
    Channel positions : Front: L R
    Sampling rate : 48.0 KHz
    Compression mode : Lossy
    Stream size : 67.1 MiB (5%)
    Language : Russian
    Encoded date : UTC 2015-01-16 07:13:42
    Tagged date : UTC 2015-01-16 07:17:38
    Audio #6
    ID : 7
    Format : AAC
    Format/Info : Advanced Audio Codec
    Format profile : LC
    Codec ID : 40
    Duration : 1h 23mn
    Bit rate mode : Variable
    Bit rate : 96.0 Kbps
    Maximum bit rate : 172 Kbps
    Channel(s) : 2 channels
    Channel positions : Front: L R
    Sampling rate : 48.0 KHz
    Compression mode : Lossy
    Stream size : 58.0 MiB (4%)
    Language : Russian
    Encoded date : UTC 2015-01-16 07:13:42
    Tagged date : UTC 2015-01-16 07:17:35
    Audio #7
    ID : 8
    Format : AAC
    Format/Info : Advanced Audio Codec
    Format profile : LC
    Codec ID : 40
    Duration : 1h 23mn
    Bit rate mode : Variable
    Bit rate : 132 Kbps
    Maximum bit rate : 195 Kbps
    Channel(s) : 2 channels
    Channel positions : Front: L R
    Sampling rate : 48.0 KHz
    Compression mode : Lossy
    Stream size : 78.4 MiB (6%)
    Language : English
    Encoded date : UTC 2015-01-16 07:13:42
    Tagged date : UTC 2015-01-16 07:17:40
    Text #1
    ID : 9
    Format : Timed Text
    Muxing mode : sbtl
    Codec ID : tx3g
    Duration : 1h 22mn
    Bit rate mode : Variable
    Bit rate : 1 bps
    Stream size : 382 Bytes (0%)
    Language : Russian
    Encoded date : UTC 2015-01-17 17:14:53
    Tagged date : UTC 2015-01-17 17:14:53
    Text #2
    ID : 10
    Format : Timed Text
    Muxing mode : sbtl
    Codec ID : tx3g
    Duration : 1h 22mn
    Bit rate mode : Variable
    Bit rate : 7 bps
    Stream size : 4.25 KiB (0%)
    Language : Russian
    Encoded date : UTC 2015-01-17 17:14:53
    Tagged date : UTC 2015-01-17 17:14:53
    Text #3
    ID : 11
    Format : Timed Text
    Muxing mode : sbtl
    Codec ID : tx3g
    Duration : 1h 22mn
    Bit rate mode : Variable
    Bit rate : 82 bps
    Stream size : 49.7 KiB (0%)
    Language : Russian
    Encoded date : UTC 2015-01-17 17:14:53
    Tagged date : UTC 2015-01-17 17:14:53
    Text #4
    ID : 12
    Format : Timed Text
    Muxing mode : sbtl
    Codec ID : tx3g
    Duration : 1h 22mn
    Bit rate mode : Variable
    Bit rate : 6 bps
    Stream size : 3.56 KiB (0%)
    Language : English
    Encoded date : UTC 2015-01-18 16:18:35
    Tagged date : UTC 2015-01-18 16:18:35
    Text #5
    ID : 13
    Format : Timed Text
    Muxing mode : sbtl
    Codec ID : tx3g
    Duration : 1h 22mn
    Bit rate mode : Variable
    Bit rate : 6 bps
    Stream size : 3.87 KiB (0%)
    Language : English
    Encoded date : UTC 2015-01-18 16:18:45
    Tagged date : UTC 2015-01-18 16:18:45
    Text #6
    ID : 14
    Format : Timed Text
    Muxing mode : sbtl
    Codec ID : tx3g
    Duration : 1h 22mn
    Bit rate mode : Variable
    Bit rate : 55 bps
    Stream size : 33.6 KiB (0%)
    Language : English
    Encoded date : UTC 2015-01-18 16:19:11
    Tagged date : UTC 2015-01-18 16:19:11
    Text #7
    ID : 15
    Format : Timed Text
    Muxing mode : sbtl
    Codec ID : tx3g
    Duration : 1h 22mn
    Bit rate mode : Variable
    Bit rate : 64 bps
    Stream size : 39.0 KiB (0%)
    Language : English
    Encoded date : UTC 2015-01-18 16:19:11
    Tagged date : UTC 2015-01-18 16:19:11
    Menu #1
    00:00:00.000 : Opening
    00:03:31.962 : "Oo-De-Lally"
    00:09:10.133 : Fortune-Telling Robbers
    00:15:09.617 : Bad Times in Nottingham
    00:20:57.089 : Skippy's Arrow
    00:27:01.537 : Young Love
    00:31:22.172 : An Archery Tournament in Nottingham
    00:37:40.049 : Let the Tournament Begin!
    00:42:00.351 : Off with His Head!
    00:48:57.643 : It Seems Like Only Yesterday ("Love")
    00:51:08.983 : "The Phony King of England"
    00:55:10.432 : "Not in Nottingham"
    01:03:05.198 : The Scaffold
    01:05:22.001 : The Rescue
    01:20:30.743 : A Happy Ending
    Menu #2
    ID : 16
    Codec ID : text
    Duration : 1h 23mn
    Language : English
    Encoded date : UTC 2015-01-18 16:21:00
    Tagged date : UTC 2015-01-18 16:21:00
    00:00:00.000 : Opening
    00:03:31.962 : "Oo-De-Lally"
    00:09:10.133 : Fortune-Telling Robbers
    00:15:09.617 : Bad Times in Nottingham
    00:20:57.089 : Skippy's Arrow
    00:27:01.537 : Young Love
    00:31:22.172 : An Archery Tournament in Nottingham
    00:37:40.049 : Let the Tournament Begin!
    00:42:00.351 : Off with His Head!
    00:48:57.643 : It Seems Like Only Yesterday ("Love")
    00:51:08.983 : "The Phony King of England"
    00:55:10.432 : "Not in Nottingham"
    01:03:05.198 : The Scaffold
    01:05:22.001 : The Rescue
    01:20:30.743 : A Happy Ending
    Bit rate mode : VBR

    MediaInfo 720p Release

    General
    Complete name : Robin Hood (HD).m4v
    Format : MPEG-4
    Codec ID : M4V
    File size : 3.90 GiB
    Duration : 1h 23mn
    Overall bit rate mode : Variable
    Overall bit rate : 6 687 Kbps
    Movie name : Robin Hood
    Performer : Wolfgang Reitherman
    Genre : Action & Adventure
    ContentType : Short Film
    Description : Добро пожаловать в дремучий Шервудский лес, где ты встретишь храброго и забавного лисенка по имени Робин Гуд и его лучшего друга Крошку Джона - большого добродушного медведя.
    Recorded date : UTC 1973-11-08 08:00:00
    Encoded date : UTC 2015-01-15 07:11:24
    Tagged date : UTC 2015-01-18 16:25:16
    Copyright : © 1973 Disney Enterprises, Inc. All Rights Reserved.
    Cover : Yes
    Rating : None
    Title/Sort : Robin Hood
    LongDescription : Добро пожаловать в дремучий Шервудский лес, где ты встретишь храброго и забавного лисенка по имени Робин Гуд и его лучшего друга Крошку Джона - большого добродушного медведя. / Эту веселую компанию давно разыскивает шериф Нотингема. Он готовит друзьям ловушку: на турнире лучников Робин Гуда будет ждать засада. Но отважный лисенок все равно собирается участвовать в состязании: ведь только там у него есть шанс увидеть красавицу Мариан. / И вот турнир начался, однако шериф никак не может узнать среди участников переодетого Робин Гуда. Правда, один точный выстрел способен сразу выдать самого лучшего стрелка в королевстве.
    HDVideo : Yes
    AppleStoreCatalogID : 656527876
    Vendor : Apple:vendor_id:1973-17579
    ContentRating : mpaa|G|100|
    iTunMOVI : <?xml version="1.0" encoding="UTF-8"?> / <!DOCTYPE plist PUBLIC "-//Apple//DTD PLIST 1.0//EN" "http://anonym.to/?http://www.apple.com/DTDs/PropertyList-1.0.dtd"> / <plist version="1.0"> / <dict> /  <key>cast</key> /  <array> /   <dict> /    <key>name</key> /    <string>Роджер Миллер</string> /   </dict> /   <dict> /    <key>name</key> /    <string>Питер Устинов</string> /   </dict> /   <dict> /    <key>name</key> /    <string>Терри-Томас</string> /   </dict> /   <dict> /    <key>name</key> /    <string>Брайан Бедфорд</string> /   </dict> /   <dict> /    <key>name</key> /    <string>Моника Эванс</string> /   </dict> /   <dict> /    <key>name</key> /    <string>Фил Харрис</string> /   </dict> /   <dict> /    <key>name</key> /    <string>Энди Дивайн</string> /   </dict> /   <dict> /    <key>name</key> /    <string>Кэрол Шелли</string> /   </dict> /   <dict> /    <key>name</key> /    <string>Пэт Баттрем</string> /   </dict> /   <dict> /    <key>name</key> /    <string>Джордж Линдси</string> /   </dict> /  </array> /  <key>directors</key> /  <array> /   <dict> /    <key>name</key> /    <string>Вольфганг Райтерман</string> /   </dict> /  </array> /  <key>producers</key> /  <array> /   <dict> /    <key>name</key> /    <string>Вольфганг Райтерман</string> /   </dict> /  </array> /  <key>screenwriters</key> /  <array> /   <dict> /    <key>name</key> /    <string>Ларри Клеммонс</string> /   </dict> /   <dict> /    <key>name</key> /    <string>Кен Андерсон</string> /   </dict> /  </array> /  <key>studio</key> /  <string>Walt Disney Pictures</string> / </dict> / </plist>
    Video #1
    ID : 1
    Format : AVC
    Format/Info : Advanced Video Codec
    Format profile : High@L3.1
    Format settings, CABAC : No
    Format settings, ReFrames : 3 frames
    Codec ID : avc1
    Codec ID/Info : Advanced Video Coding
    Duration : 1h 23mn
    Bit rate : 4 200 Kbps
    Width : 1 200 pixels
    Height : 720 pixels
    Display aspect ratio : 1.667
    Frame rate mode : Variable
    Frame rate : 23.976 fps
    Minimum frame rate : 23.968 fps
    Maximum frame rate : 23.981 fps
    Color space : YUV
    Chroma subsampling : 4:2:0
    Bit depth : 8 bits
    Scan type : Progressive
    Bits/(Pixel*Frame) : 0.203
    Stream size : 2.44 GiB (62%)
    Writing library : x264 core 130 r2273 b3065e6
    Encoding settings : cabac=0 / ref=3 / deblock=1:0:0 / analyse=0x3:0x113 / me=umh / subme=9 / psy=1 / psy_rd=0.70:0.00 / mixed_ref=1 / me_range=32 / chroma_me=1 / trellis=0 / 8x8dct=1 / cqm=0 / deadzone=21,11 / fast_pskip=0 / chroma_qp_offset=-2 / threads=18 / lookahead_threads=1 / sliced_threads=0 / nr=0 / decimate=0 / interlaced=0 / bluray_compat=0 / constrained_intra=0 / bframes=3 / b_pyramid=0 / b_adapt=2 / b_bias=0 / direct=1 / weightb=0 / open_gop=0 / weightp=0 / keyint=240 / keyint_min=24 / scenecut=40 / intra_refresh=0 / rc_lookahead=40 / rc=2pass / mbtree=1 / bitrate=4200 / ratetol=1.0 / qcomp=0.70 / qpmin=0 / qpmax=51 / qpstep=4 / cplxblur=20.0 / qblur=0.5 / vbv_maxrate=9500 / vbv_bufsize=9500 / nal_hrd=none / ip_ratio=1.30 / aq=1:1.10
    Language : English
    Encoded date : UTC 2015-01-15 07:11:24
    Tagged date : UTC 2015-01-15 07:15:20
    Color primaries : BT.709
    Transfer characteristics : BT.709
    Matrix coefficients : BT.709
    Video #2
    ID : 19
    Format : JPEG
    Codec ID : jpeg
    Duration : 1h 23mn
    Bit rate mode : Variable
    Bit rate : 1 885 bps
    Width : 640 pixels
    Height : 384 pixels
    Display aspect ratio : 1.667
    Frame rate mode : Variable
    Frame rate : 0.003 fps
    Minimum frame rate : 0.001 fps
    Maximum frame rate : 0.008 fps
    Color space : YUV
    Chroma subsampling : 4:2:0
    Bit depth : 8 bits
    Compression mode : Lossy
    Bits/(Pixel*Frame) : 2.557
    Stream size : 1.12 MiB (0%)
    Language : English
    Encoded date : UTC 2015-01-18 16:22:29
    Tagged date : UTC 2015-01-18 16:22:30
    Audio #1
    ID : 2
    Format : AAC
    Format/Info : Advanced Audio Codec
    Format profile : LC
    Codec ID : 40
    Duration : 1h 23mn
    Bit rate mode : Variable
    Bit rate : 192 Kbps
    Maximum bit rate : 241 Kbps
    Channel(s) : 2 channels
    Channel positions : Front: L R
    Sampling rate : 48.0 KHz
    Compression mode : Lossy
    Stream size : 112 MiB (3%)
    Language : Russian
    Encoded date : UTC 2015-01-15 07:11:24
    Tagged date : UTC 2015-01-15 07:16:05
    Audio #2
    ID : 3
    Format : AAC
    Format/Info : Advanced Audio Codec
    Format profile : LC
    Codec ID : 40
    Duration : 1h 23mn
    Bit rate mode : Variable
    Bit rate : 177 Kbps
    Maximum bit rate : 227 Kbps
    Channel(s) : 2 channels
    Channel positions : Front: L R
    Sampling rate : 48.0 KHz
    Compression mode : Lossy
    Stream size : 105 MiB (3%)
    Language : Russian
    Encoded date : UTC 2015-01-15 13:56:24
    Tagged date : UTC 2015-01-15 13:56:28
    Audio #3
    ID : 4
    Format : AAC
    Format/Info : Advanced Audio Codec
    Format profile : LC
    Codec ID : 40
    Duration : 1h 23mn
    Bit rate mode : Variable
    Bit rate : 155 Kbps
    Maximum bit rate : 194 Kbps
    Channel(s) : 2 channels
    Channel positions : Front: L R
    Sampling rate : 48.0 KHz
    Compression mode : Lossy
    Stream size : 92.6 MiB (2%)
    Language : Russian
    Encoded date : UTC 2015-01-15 13:56:49
    Tagged date : UTC 2015-01-15 13:56:56
    Audio #4
    ID : 5
    Format : AAC
    Format/Info : Advanced Audio Codec
    Format profile : LC
    Codec ID : 40
    Duration : 1h 23mn
    Bit rate mode : Variable
    Bit rate : 192 Kbps
    Maximum bit rate : 259 Kbps
    Channel(s) : 2 channels
    Channel positions : Front: L R
    Sampling rate : 48.0 KHz
    Compression mode : Lossy
    Stream size : 116 MiB (3%)
    Language : Russian
    Encoded date : UTC 2015-01-15 13:57:18
    Tagged date : UTC 2015-01-15 13:57:28
    Audio #5
    ID : 6
    Format : AAC
    Format/Info : Advanced Audio Codec
    Format profile : LC
    Codec ID : 40
    Duration : 1h 23mn
    Bit rate mode : Variable
    Bit rate : 167 Kbps
    Maximum bit rate : 184 Kbps
    Channel(s) : 2 channels
    Channel positions : Front: L R
    Sampling rate : 48.0 KHz
    Compression mode : Lossy
    Stream size : 99.3 MiB (2%)
    Language : Russian
    Encoded date : UTC 2015-01-15 13:57:40
    Tagged date : UTC 2015-01-15 13:57:49
    Audio #6
    ID : 7
    Format : AAC
    Format/Info : Advanced Audio Codec
    Format profile : LC
    Codec ID : 40
    Duration : 1h 23mn
    Bit rate mode : Variable
    Bit rate : 140 Kbps
    Maximum bit rate : 231 Kbps
    Channel(s) : 2 channels
    Channel positions : Front: L R
    Sampling rate : 48.0 KHz
    Compression mode : Lossy
    Stream size : 83.6 MiB (2%)
    Language : Russian
    Encoded date : UTC 2015-01-15 13:58:05
    Tagged date : UTC 2015-01-15 13:58:12
    Audio #7
    ID : 8
    Format : AAC
    Format/Info : Advanced Audio Codec
    Format profile : LC
    Codec ID : 40
    Duration : 1h 23mn
    Bit rate mode : Variable
    Bit rate : 197 Kbps
    Maximum bit rate : 281 Kbps
    Channel(s) : 2 channels
    Channel positions : Front: L R
    Sampling rate : 48.0 KHz
    Compression mode : Lossy
    Stream size : 117 MiB (3%)
    Language : English
    Encoded date : UTC 2015-01-15 13:58:36
    Tagged date : UTC 2015-01-15 13:59:06
    Audio #8
    ID : 9
    Format : AC-3
    Format/Info : Audio Coding 3
    Mode extension : CM (complete main)
    Format settings, Endianness : Big
    Codec ID : ac-3
    Duration : 1h 23mn
    Bit rate mode : Constant
    Bit rate : 640 Kbps
    Channel(s) : 6 channels
    Channel positions : Front: L C R, Side: L R, LFE
    Sampling rate : 48.0 KHz
    Bit depth : 16 bits
    Compression mode : Lossy
    Stream size : 380 MiB (10%)
    Language : Russian
    Encoded date : UTC 2015-01-15 13:58:36
    Tagged date : UTC 2015-01-15 13:58:56
    Audio #9
    ID : 10
    Format : AC-3
    Format/Info : Audio Coding 3
    Mode extension : CM (complete main)
    Format settings, Endianness : Big
    Codec ID : ac-3
    Duration : 1h 23mn
    Bit rate mode : Constant
    Bit rate : 640 Kbps
    Channel(s) : 6 channels
    Channel positions : Front: L C R, Side: L R, LFE
    Sampling rate : 48.0 KHz
    Bit depth : 16 bits
    Compression mode : Lossy
    Stream size : 380 MiB (10%)
    Language : English
    Encoded date : UTC 2015-01-15 13:59:44
    Tagged date : UTC 2015-01-15 14:00:02
    Text #1
    ID : 11
    Format : Timed Text
    Muxing mode : sbtl
    Codec ID : tx3g
    Duration : 1h 22mn
    Bit rate mode : Variable
    Bit rate : 1 bps
    Stream size : 382 Bytes (0%)
    Language : Russian
    Encoded date : UTC 2015-01-17 17:14:07
    Tagged date : UTC 2015-01-17 17:14:07
    Text #2
    ID : 12
    Format : Timed Text
    Muxing mode : sbtl
    Codec ID : tx3g
    Duration : 1h 22mn
    Bit rate mode : Variable
    Bit rate : 7 bps
    Stream size : 4.25 KiB (0%)
    Language : Russian
    Encoded date : UTC 2015-01-17 17:14:07
    Tagged date : UTC 2015-01-17 17:14:07
    Text #3
    ID : 13
    Format : Timed Text
    Muxing mode : sbtl
    Codec ID : tx3g
    Duration : 1h 22mn
    Bit rate mode : Variable
    Bit rate : 82 bps
    Stream size : 49.7 KiB (0%)
    Language : Russian
    Encoded date : UTC 2015-01-17 17:14:07
    Tagged date : UTC 2015-01-17 17:14:07
    Text #4
    ID : 14
    Format : Timed Text
    Muxing mode : sbtl
    Codec ID : tx3g
    Duration : 1h 22mn
    Bit rate mode : Variable
    Bit rate : 6 bps
    Stream size : 3.56 KiB (0%)
    Language : English
    Encoded date : UTC 2015-01-18 16:22:21
    Tagged date : UTC 2015-01-18 16:22:21
    Text #5
    ID : 15
    Format : Timed Text
    Muxing mode : sbtl
    Codec ID : tx3g
    Duration : 1h 22mn
    Bit rate mode : Variable
    Bit rate : 6 bps
    Stream size : 3.87 KiB (0%)
    Language : English
    Encoded date : UTC 2015-01-18 16:22:21
    Tagged date : UTC 2015-01-18 16:22:21
    Text #6
    ID : 16
    Format : Timed Text
    Muxing mode : sbtl
    Codec ID : tx3g
    Duration : 1h 22mn
    Bit rate mode : Variable
    Bit rate : 55 bps
    Stream size : 33.6 KiB (0%)
    Language : English
    Encoded date : UTC 2015-01-18 16:22:21
    Tagged date : UTC 2015-01-18 16:22:21
    Text #7
    ID : 17
    Format : Timed Text
    Muxing mode : sbtl
    Codec ID : tx3g
    Duration : 1h 22mn
    Bit rate mode : Variable
    Bit rate : 64 bps
    Stream size : 39.0 KiB (0%)
    Language : English
    Encoded date : UTC 2015-01-18 16:22:21
    Tagged date : UTC 2015-01-18 16:22:21
    Menu #1
    00:00:00.000 : Opening
    00:03:31.962 : "Oo-De-Lally"
    00:09:10.133 : Fortune-Telling Robbers
    00:15:09.617 : Bad Times in Nottingham
    00:20:57.089 : Skippy's Arrow
    00:27:01.537 : Young Love
    00:31:22.172 : An Archery Tournament in Nottingham
    00:37:40.049 : Let the Tournament Begin!
    00:42:00.351 : Off with His Head!
    00:48:57.643 : It Seems Like Only Yesterday ("Love")
    00:51:08.983 : "The Phony King of England"
    00:55:10.432 : "Not in Nottingham"
    01:03:05.198 : The Scaffold
    01:05:22.001 : The Rescue
    01:20:30.743 : A Happy Ending
    Menu #2
    ID : 18
    Codec ID : text
    Duration : 1h 23mn
    Language : English
    Encoded date : UTC 2015-01-18 16:22:21
    Tagged date : UTC 2015-01-18 16:22:21
    00:00:00.000 : Opening
    00:03:31.962 : "Oo-De-Lally"
    00:09:10.133 : Fortune-Telling Robbers
    00:15:09.617 : Bad Times in Nottingham
    00:20:57.089 : Skippy's Arrow
    00:27:01.537 : Young Love
    00:31:22.172 : An Archery Tournament in Nottingham
    00:37:40.049 : Let the Tournament Begin!
    00:42:00.351 : Off with His Head!
    00:48:57.643 : It Seems Like Only Yesterday ("Love")
    00:51:08.983 : "The Phony King of England"
    00:55:10.432 : "Not in Nottingham"
    01:03:05.198 : The Scaffold
    01:05:22.001 : The Rescue
    01:20:30.743 : A Happy Ending
    Bit rate mode : VBR

    x264 лог 480p Release

    HandBrakeCLI -i "ROBIN_HOOD_SE_2013_HDCLUB/BDMV/STREAM/00300.m2ts" -t 1 -o Robin.Hood.480p.eng.m4v -f mp4 -I -O -w 640 -l 480 --crop 0:0:62:60 --custom-anamorphic --modulus 4 --pixel-aspect 800:640 -e x264 -b 1500 -2 -a none -x cabac=0:ref=2:me=umh:bframes=0:weightp=0:subq=6:8x8dct=0:trellis=0:vbv-maxrate=5000:vbv-bufsize=5000 --verbose=1
    x264 [info]: frame I:1866  Avg QP:20.32  size: 39454  PSNR Mean Y:43.64 U:45.98 V:46.63 Avg:44.34 Global:43.69
    x264 [info]: frame P:117581 Avg QP:23.01  size:  7319  PSNR Mean Y:40.53 U:43.04 V:43.56 Avg:41.25 Global:40.91
    x264 [info]: mb I  I16..4: 27.5%  0.0% 72.5%
    x264 [info]: mb P  I16..4:  0.9%  0.0%  3.0%  P16..4: 38.4% 12.6%  7.1%  0.0%  0.0%    skip:37.9%
    x264 [info]: coded y,uvDC,uvAC intra: 69.0% 81.8% 63.5% inter: 17.2% 18.6% 5.1%
    x264 [info]: i16 v,h,dc,p: 40% 16% 12% 32%
    x264 [info]: i4 v,h,dc,ddl,ddr,vr,hd,vl,hu: 24% 15% 19%  7%  7%  8%  7%  7%  6%
    x264 [info]: i8c dc,h,v,p: 52% 18% 21%  9%
    x264 [info]: ref P L0: 70.2% 29.8%
    x264 [info]: SSIM Mean Y:0.9786631 (16.709db)
    x264 [info]: PSNR Mean Y:40.580 U:43.089 V:43.605 Avg:41.301 Global:40.938 kb/s:1500.09

    x264 лог 720p Release

    HandBrakeCLI -i "ROBIN_HOOD_SE_2013_HDCLUB/BDMV/STREAM/00300.m2ts" -t 1 -o Robin.Hood.720p.eng.m4v -f mp4 -4 -O -w 1200 -l 720 --crop 0:0:62:60 --modulus 4 -e x264 -b 4200 -2 -a none -x cabac=0:ref=3:me=umh:b-pyramid=none:b-adapt=2:weightb=0:trellis=0:weightp=0:vbv-maxrate=9500:vbv-bufsize=9500:subq=9:merange=32:deblock=0,0:qcomp=0.70:qpmin=0:qpmax=51:fast_pskip=0:aq-strength=1.1:no-dct-decimate=1:ipratio=1.3:psy-rd=0.70,0.00 --verbose=1
    x264 [info]: frame I:1269  Avg QP:18.33  size:118672  PSNR Mean Y:45.10 U:46.59 V:47.11 Avg:45.61 Global:45.39
    x264 [info]: frame P:49159 Avg QP:20.87  size: 37093  PSNR Mean Y:42.50 U:44.54 V:45.24 Avg:43.15 Global:42.93
    x264 [info]: frame B:69019 Avg QP:21.53  size:  9294  PSNR Mean Y:41.85 U:44.17 V:44.92 Avg:42.56 Global:42.30
    x264 [info]: consecutive B-frames:  6.5% 39.3% 30.7% 23.5%
    x264 [info]: mb I  I16..4:  3.8% 48.8% 47.4%
    x264 [info]: mb P  I16..4:  1.3%  5.4%  3.6%  P16..4: 53.1% 23.5%  9.7%  0.0%  0.0%    skip: 3.4%
    x264 [info]: mb B  I16..4:  0.1%  0.8%  0.6%  B16..8: 36.0%  9.3%  1.6%  direct: 3.4%  skip:48.1%  L0:42.7% L1:51.5% BI: 5.8%
    x264 [info]: 8x8 transform intra:51.5% inter:46.9%
    x264 [info]: coded y,uvDC,uvAC intra: 82.2% 88.0% 73.2% inter: 25.0% 27.8% 16.2%
    x264 [info]: i16 v,h,dc,p: 27% 19% 16% 38%
    x264 [info]: i8 v,h,dc,ddl,ddr,vr,hd,vl,hu:  7%  7%  7% 13% 16% 13% 14% 11% 12%
    x264 [info]: i4 v,h,dc,ddl,ddr,vr,hd,vl,hu: 13% 13%  9% 11% 14% 12% 12%  8%  8%
    x264 [info]: i8c dc,h,v,p: 53% 19% 19%  9%
    x264 [info]: ref P L0: 69.1% 18.6% 12.3%
    x264 [info]: ref B L0: 73.6% 26.4%
    x264 [info]: SSIM Mean Y:0.9787218 (16.721db)
    x264 [info]: PSNR Mean Y:42.154 U:44.344 V:45.079 Avg:42.835 Global:42.573 kb/s:4199.99

    Скриншоты 480p Release

    Скриншоты 720p Release

    Цитата:
    Цитата:

    • Главы, Дубляж, оригинальная и субтитры взяты с издания Blu-Ray CCE;
    • Остальные русские дороги взяты из раздачи
    -

    Релиз подготовлен для просмотра на Apple TV, iPad, iPhone, iPod Touch.
    Для просмотра данного релиза на компьютере с ОС Windows рекомендуется использовать VLC media player
    Скачать .torrent

    Скачать торрент-файл бесплатно и на максимальной скорости!

    Как скачивать? · Что такое торрент? · Рейтинг и ограничения

    !ВНИМАНИЕ!
    Сайт не распространяет и не хранит электронные версии произведений, а занимается лишь лишь предоставлением доступа к создаваемому пользователями каталогу ссылок на торрент-файлы, которые содержат только списки хеш-сумм, убедительная просьба с жалобами обращаться напрямую к пользователю. Файлы для обмена на трекере предоставлены пользователями сайта, и администрация не несёт ответственности за их содержание. Просьба не заливать файлы, защищенные авторскими правами, а также файлы нелегального содержания!


    _________________
    [Профиль] [ЛС]
    Показать сообщения:    
    Ответить на тему

    Текущее время: Сегодня, в 13:53

    Часовой пояс: GMT + 2



    Вы не можете начинать темы
    Вы не можете отвечать на сообщения
    Вы не можете редактировать свои сообщения
    Вы не можете удалять свои сообщения
    Вы не можете голосовать в опросах
    Вы не можете прикреплять файлы к сообщениям
    Вы не можете скачивать файлы