BitTorrentTracker PerecTracker.org
BitTorrentTracker PerecTracker.org
    
Регистрация  ·  Вход
 
 · 
Забыли пароль?

  • ATV3] Пингвины Мадагаскара / Penguins of Madagascar (Саймон Дж. Смит / Simon J. Smith ) [2014, США, Мультфильм, комедия, приключения, семейный, BDRip, HD (1080p)] DUB + Original + sub (rus for, rus)

    Ответить на тему
     
    Автор Сообщение

    Light

    Создавать темы 07-Янв-2016 04:26

           

    [Цитировать]

    Пингвины Мадагаскара / Penguins of Madagascar
    «В этот раз они не останутся в тени»
    6.729 / 10 6.90 / 10
    -Год выпуска: 2014
    Страна: США
    Жанр: Мультфильм, комедия, приключения, семейный
    Продолжительность: 01:32:19
    Перевод: Дублированный (iTunes Russian)
    Оригинальная аудиодорожка: Есть
    Cубтитры: Русские форсированные, Русские
    Режиссёр: Саймон Дж. Смит
    Сценарий: Джон Эбауд, Майкл Колтон, Брэндон Сойер
    Продюсер: Лара Брей, Марк Свифт, Эрик Дарнелл
    Композитор: Лорн Бэлф
    Монтаж: Ник Кенвей
    В ролях: Том МакГрат, Крис Миллер, Кристофер Найтс, Конрад Вернон, Джон Малкович, Бенедикт Камбербэтч, Кен Жонг, Аннет Махендру, Петер Стормаре, Энди Рихтер
    Бюджет: $132 000 000
    Сборы в США: $82 450 663
    Сборы в мире: + $265 800 000 = $348 250 663
    Сборы в России: $18 404 203
    Мировая премьера: 8 ноября 2014
    Премьера (РФ): 27 ноября 2014, «Двадцатый Век Фокс СНГ»
    Релиз на DVD: 5 марта 2015, «Двадцатый Век Фокс СНГ»
    Релиз на Blu-Ray: 5 марта 2015, «Двадцатый Век Фокс СНГ»
    Описание: Четвёрка пингвинов-шпионов — Шкипер, Ковальски, Рико и Прапор — объединяется с командой «Северный ветер», помогающей беззащитным животным. Им предстоит остановить злобного осьминога, доктора Октавиуса Брайна, желающего уничтожить этот мир…-Качество исходника: Кинозал, Пингвины Мадагаскара / Penguins of Madagascar / 2014 / ДБ, СТ / Blu-Ray Remux (1080p)
    Качество: BDRip
    Тип: HD (1080p)
    Контейнер: M4V
    Видео: H.264, 1920x1040, 1.85:1, 6 500 Kbps, 23.976 fps
    Аудио 1: Русский/Дублированный (iTunes Russian), AAC / 2.0 / 160 Kbps / 48.0 KHz
    Аудио 2: Английский/Оригинальная дорожка , AAC / 2.0 / 157 Kbps / 48.0 KHz
    Аудио 3: Русский/Дублированный (iTunes Russian), AC-3 / 5.1 / 384 Kbps / 48.0 KHz
    Аудио 4: Английский/Оригинальная дорожка , AC-3 / 5.1 / 384 Kbps / 48.0 KHz
    Субтитры 1: Русские форсированные
    Субтитры 2: Русские полные
    -

    iTunes Meta Tags

    Sort Name: Penguins of Madagascar
    XID: Apple:vendor_id:2014-607608
    contentID: 932528635
    Copyright: © 2014 DreamWorks Animation, L.L.C. All rights reserved.
    Screenwriters: Джон Эбауд, Майкл Колтон, Брэндон Сойер
    Producers: Лара Брей, Марк Свифт, Эрик Дарнелл
    Director: Эрик Дарнелл, Саймон Дж. Смит
    Cast: Том МакГрат, Крис Миллер, Кристофер Найтс, Конрад Вернон, Джон Малкович, Бенедикт Камбербэтч, Кен Жонг, Аннет Махендру, Петер Стормаре, Энди Рихтер
    Studio: DreamWorks
    Rating Annotation: Rated PG for mild action and some rude humor.
    Rating: 9
    Long Description: Четвёрка пингвинов-шпионов — Шкипер, Ковальски, Рико и Прапор — объединяется с командой «Северный ветер», помогающей беззащитным животным. Им предстоит остановить злобного осьминога, доктора Октавиуса Брайна, желающего уничтожить этот мир…
    Description: Сверхсекретные операции, железная дисциплина и выдержка, а главное, феноменальная находчивость - вот критерии успешной миссии, даже если она кажется невыполнимой.
    Release Date: 2014-11-08T08:00:00Z
    Genre: Kids & Family
    Artist: Eric Darnell & Simon J. Smith
    Name: Penguins of Madagascar

    MediaInfo

    General
    Complete name                            : /Users/imac/HandBrake/Penguins of Madagascar (1080p HD).m4v
    Format                                   : MPEG-4
    Codec ID                                 : M4V
    File size                                : 4.90 GiB
    Duration                                 : 1h 32mn
    Overall bit rate mode                    : Variable
    Overall bit rate                         : 7 592 Kbps
    Movie name                               : Penguins of Madagascar
    Performer                                : Eric Darnell & Simon J. Smith
    Genre                                    : Kids & Family
    Recorded date                            : UTC 2014-11-08 08:00:00
    Encoded date                             : UTC 2015-02-18 09:52:08
    Tagged date                              : UTC 2015-02-18 09:56:19
    Copyright                                : © 2014 DreamWorks Animation, L.L.C. All rights reserved.
    Cover                                    : Yes
    sonm                                     : Penguins of Madagascar
    desc                                     : Сверхсекретные операции, железная дисциплина и выдержка, а главное, феноменальная находчивость - вот критерии успешной миссии, даже если она кажется невыполнимой.
    ldes                                     : Четвёрка пингвинов-шпионов — Шкипер, Ковальски, Рико и Прапор — объединяется с командой «Северный ветер», помогающей беззащитным животным. Им предстоит остановить злобного осьминога, доктора Октавиуса Брайна, желающего уничтожить этот мир…
    hdvd                                     : 2
    stik                                     : 9
    rtng                                     : 0
    cnID                                     : 932528635
    xid                                      : Apple:vendor_id:2014-607608
    iTunEXTC                                 : mpaa|PG|200|Rated PG for mild action and some rude humor.
    iTunMOVI                                 : <?xml version=\"1.0\" encoding=\"UTF-8\"?> / <!DOCTYPE plist PUBLIC \"-//Apple//DTD PLIST 1.0//EN\" \"http://anonym.to/?http://www.apple.com/DTDs/PropertyList-1.0.dtd\"> / <plist version=\"1.0\"> / <dict> /  <key>cast</key> /  <array> /   <dict> /    <key>name</key> /    <string>Том МакГрат</string> /   </dict> /   <dict> /    <key>name</key> /    <string>Крис Миллер</string> /   </dict> /   <dict> /    <key>name</key> /    <string>Кристофер Найтс</string> /   </dict> /   <dict> /    <key>name</key> /    <string>Конрад Вернон</string> /   </dict> /   <dict> /    <key>name</key> /    <string>Джон Малкович</string> /   </dict> /   <dict> /    <key>name</key> /    <string>Бенедикт Камбербэтч</string> /   </dict> /   <dict> /    <key>name</key> /    <string>Кен Жонг</string> /   </dict> /   <dict> /    <key>name</key> /    <string>Аннет Махендру</string> /   </dict> /   <dict> /    <key>name</key> /    <string>Петер Стормаре</string> /   </dict> /   <dict> /    <key>name</key> /    <string>Энди Рихтер</string> /   </dict> /  </array> /  <key>directors</key> /  <array> /   <dict> /    <key>name</key> /    <string>Эрик Дарнелл</string> /   </dict> /   <dict> /    <key>name</key> /    <string>Саймон Дж. Смит</string> /   </dict> /  </array> /  <key>producers</key> /  <array> /   <dict> /    <key>name</key> /    <string>Лара Брей</string> /   </dict> /   <dict> /    <key>name</key> /    <string>Марк Свифт</string> /   </dict> /   <dict> /    <key>name</key> /    <string>Эрик Дарнелл</string> /   </dict> /  </array> /  <key>screenwriters</key> /  <array> /   <dict> /    <key>name</key> /    <string>Джон Эбауд</string> /   </dict> /   <dict> /    <key>name</key> /    <string>Майкл Колтон</string> /   </dict> /   <dict> /    <key>name</key> /    <string>Брэндон Сойер</string> /   </dict> /  </array> /  <key>studio</key> /  <string>DreamWorks</string> / </dict> / </plist>
    Video #1
    ID                                       : 1
    Format                                   : AVC
    Format/Info                              : Advanced Video Codec
    Format profile                           : High@L4.0
    Format settings, CABAC                   : Yes
    Format settings, ReFrames                : 4 frames
    Codec ID                                 : avc1
    Codec ID/Info                            : Advanced Video Coding
    Duration                                 : 1h 32mn
    Bit rate mode                            : Variable
    Bit rate                                 : 6 500 Kbps
    Width                                    : 1 920 pixels
    Height                                   : 1 040 pixels
    Display aspect ratio                     : 1.85:1
    Frame rate mode                          : Variable
    Frame rate                               : 23.976 fps
    Minimum frame rate                       : 23.810 fps
    Maximum frame rate                       : 24.272 fps
    Color space                              : YUV
    Chroma subsampling                       : 4:2:0
    Bit depth                                : 8 bits
    Scan type                                : Progressive
    Bits/(Pixel*Frame)                       : 0.136
    Stream size                              : 4.19 GiB (86%)
    Writing library                          : x264 core 142 r2479 dd79a61
    Encoding settings                        : cabac=1 / ref=4 / deblock=1:0:0 / analyse=0x3:0x133 / me=umh / subme=10 / psy=1 / psy_rd=1.00:0.00 / mixed_ref=1 / me_range=32 / chroma_me=1 / trellis=2 / 8x8dct=1 / cqm=0 / deadzone=21,11 / fast_pskip=1 / chroma_qp_offset=-2 / threads=12 / lookahead_threads=1 / sliced_threads=0 / nr=0 / decimate=1 / interlaced=0 / bluray_compat=0 / constrained_intra=0 / bframes=4 / b_pyramid=2 / b_adapt=2 / b_bias=0 / direct=3 / weightb=1 / open_gop=0 / weightp=2 / keyint=240 / keyint_min=24 / scenecut=40 / intra_refresh=0 / rc_lookahead=40 / rc=2pass / mbtree=0 / bitrate=6500 / ratetol=1.0 / qcomp=0.60 / qpmin=0 / qpmax=69 / qpstep=4 / cplxblur=20.0 / qblur=0.5 / vbv_maxrate=25000 / vbv_bufsize=25000 / nal_hrd=none / filler=0 / ip_ratio=1.40 / pb_ratio=1.30 / aq=1:1.00
    Language                                 : English
    Encoded date                             : UTC 2015-02-18 09:52:08
    Tagged date                              : UTC 2015-02-18 09:53:40
    Color primaries                          : BT.709-5, BT.1361, IEC 61966-2-4, SMPTE RP177
    Transfer characteristics                 : BT.709-5, BT.1361
    Matrix coefficients                      : BT.709-5, BT.1361, IEC 61966-2-4 709, SMPTE RP177
    Video #2
    ID                                       : 9
    Format                                   : JPEG
    Codec ID                                 : jpeg
    Duration                                 : 1h 32mn
    Bit rate mode                            : Variable
    Bit rate                                 : 1 854 bps
    Width                                    : 640 pixels
    Height                                   : 346 pixels
    Display aspect ratio                     : 1.85:1
    Frame rate mode                          : Variable
    Frame rate                               : 0.005 fps
    Minimum frame rate                       : 0.001 fps
    Maximum frame rate                       : 0.011 fps
    Color space                              : YUV
    Chroma subsampling                       : 4:2:0
    Bit depth                                : 8 bits
    Compression mode                         : Lossy
    Bits/(Pixel*Frame)                       : 1.674
    Stream size                              : 1.24 MiB (0%)
    Language                                 : English
    Encoded date                             : UTC 2015-02-18 09:53:53
    Tagged date                              : UTC 2015-02-18 09:53:55
    Audio #1
    ID                                       : 2
    Format                                   : AAC
    Format/Info                              : Advanced Audio Codec
    Format profile                           : LC
    Codec ID                                 : 40
    Duration                                 : 1h 31mn
    Bit rate mode                            : Variable
    Bit rate                                 : 160 Kbps
    Maximum bit rate                         : 237 Kbps
    Channel(s)                               : 2 channels
    Channel positions                        : Front: L R
    Sampling rate                            : 48.0 KHz
    Compression mode                         : Lossy
    Stream size                              : 105 MiB (2%)
    Language                                 : Russian
    Encoded date                             : UTC 2015-02-18 09:52:08
    Tagged date                              : UTC 2015-02-18 09:53:41
    Audio #2
    ID                                       : 3
    Format                                   : AAC
    Format/Info                              : Advanced Audio Codec
    Format profile                           : LC
    Codec ID                                 : 40
    Duration                                 : 1h 31mn
    Bit rate mode                            : Variable
    Bit rate                                 : 157 Kbps
    Maximum bit rate                         : 250 Kbps
    Channel(s)                               : 2 channels
    Channel positions                        : Front: L R
    Sampling rate                            : 48.0 KHz
    Compression mode                         : Lossy
    Stream size                              : 103 MiB (2%)
    Language                                 : English
    Encoded date                             : UTC 2015-02-18 09:52:08
    Tagged date                              : UTC 2015-02-18 09:53:41
    Audio #3
    ID                                       : 4
    Format                                   : AC-3
    Format/Info                              : Audio Coding 3
    Mode extension                           : CM (complete main)
    Format settings, Endianness              : Big
    Codec ID                                 : ac-3
    Duration                                 : 1h 31mn
    Bit rate mode                            : Constant
    Bit rate                                 : 384 Kbps
    Channel(s)                               : 6 channels
    Channel positions                        : Front: L C R, Side: L R, LFE
    Sampling rate                            : 48.0 KHz
    Bit depth                                : 16 bits
    Compression mode                         : Lossy
    Stream size                              : 252 MiB (5%)
    Language                                 : Russian
    Encoded date                             : UTC 2015-02-18 09:52:08
    Tagged date                              : UTC 2015-02-18 09:52:17
    Audio #4
    ID                                       : 5
    Format                                   : AC-3
    Format/Info                              : Audio Coding 3
    Mode extension                           : CM (complete main)
    Format settings, Endianness              : Big
    Codec ID                                 : ac-3
    Duration                                 : 1h 31mn
    Bit rate mode                            : Constant
    Bit rate                                 : 384 Kbps
    Channel(s)                               : 6 channels
    Channel positions                        : Front: L C R, Side: L R, LFE
    Sampling rate                            : 48.0 KHz
    Bit depth                                : 16 bits
    Compression mode                         : Lossy
    Stream size                              : 252 MiB (5%)
    Language                                 : English
    Encoded date                             : UTC 2015-02-18 09:52:08
    Tagged date                              : UTC 2015-02-18 09:52:17
    Text #1
    ID                                       : 6
    Format                                   : Timed text
    Muxing mode                              : sbtl
    Codec ID                                 : tx3g
    Duration                                 : 1h 21mn
    Bit rate mode                            : Variable
    Bit rate                                 : 1 bps
    Stream size                              : 308 Bytes (0%)
    Language                                 : Russian
    Encoded date                             : UTC 2015-02-18 09:52:08
    Tagged date                              : UTC 2015-02-18 09:52:25
    Text #2
    ID                                       : 7
    Format                                   : Timed text
    Muxing mode                              : sbtl
    Codec ID                                 : tx3g
    Duration                                 : 1h 22mn
    Bit rate mode                            : Variable
    Bit rate                                 : 111 bps
    Stream size                              : 67.1 KiB (0%)
    Language                                 : Russian
    Encoded date                             : UTC 2015-02-18 09:52:08
    Tagged date                              : UTC 2015-02-18 09:52:28
    Text #3
    ID                                       : 8
    Format                                   : Apple text
    Codec ID                                 : text
    Duration                                 : 1h 32mn
    Bit rate mode                            : Variable
    Bit rate                                 : 1 bps
    Stream size                              : 439 Bytes (0%)
    Language                                 : English
    Encoded date                             : UTC 2015-02-18 09:53:41
    Tagged date                              : UTC 2015-02-18 09:53:41
    Menu
    00:00:00.000                             : 1
    00:03:38.176                             : 2
    00:07:27.113                             : 3
    00:09:23.188                             : 4
    00:12:09.103                             : 5
    00:16:08.134                             : 6
    00:19:21.118                             : 7
    00:23:02.089                             : 8
    00:26:57.115                             : 9
    00:28:59.154                             : 10
    00:30:34.166                             : 11
    00:33:59.120                             : 12
    00:38:03.156                             : 13
    00:41:28.111                             : 14
    00:44:22.118                             : 15
    00:46:37.128                             : 16
    00:49:10.114                             : 17
    00:54:28.182                             : 18
    00:55:57.187                             : 19
    01:00:00.096                             : 20
    01:03:03.113                             : 21
    01:06:37.118                             : 22
    01:09:48.142                             : 23
    01:12:06.197                             : 24
    01:14:15.159                             : 25
    01:15:54.091                             : 26
    01:18:23.115                             : 27
    01:20:44.131                             : 28

    x264 лог

    x264 [info]: frame I:1512  Avg QP:13.39  size:168607
    x264 [info]: frame P:48068 Avg QP:16.20  size: 56384
    x264 [info]: frame B:83238 Avg QP:17.32  size: 18451
    x264 [info]: consecutive B-frames: 10.5% 15.8% 15.0% 43.3% 15.4%
    x264 [info]: mb I  I16..4:  9.0% 65.5% 25.4%
    x264 [info]: mb P  I16..4:  4.5% 19.1%  3.2%  P16..4: 35.2% 15.4%  8.8%  0.2%  0.0%    skip:13.6%
    x264 [info]: mb B  I16..4:  0.9%  2.1%  0.3%  B16..8: 34.2%  9.4%  2.2%  direct: 6.2%  skip:44.6%  L0:40.7% L1:50.6% BI: 8.7%
    x264 [info]: 8x8 transform intra:69.4% inter:60.0%
    x264 [info]: direct mvs  spatial:94.9% temporal:5.1%
    x264 [info]: coded y,uvDC,uvAC intra: 66.2% 85.7% 62.7% inter: 16.0% 22.9% 5.1%
    x264 [info]: i16 v,h,dc,p: 24% 26% 12% 38%
    x264 [info]: i8 v,h,dc,ddl,ddr,vr,hd,vl,hu: 13% 17% 17%  7%  8%  9% 10%  8% 11%
    x264 [info]: i4 v,h,dc,ddl,ddr,vr,hd,vl,hu: 18% 19% 12%  6% 10% 10% 10%  7%  8%
    x264 [info]: i8c dc,h,v,p: 39% 27% 19% 15%
    x264 [info]: Weighted P-Frames: Y:1.8% UV:1.5%
    x264 [info]: ref P L0: 66.1%  6.2% 18.2%  7.8%  1.8%  0.0%
    x264 [info]: ref B L0: 86.9% 10.8%  2.3%
    x264 [info]: ref B L1: 93.6%  6.4%
    x264 [info]: kb/s:6500.11

    Скриншоты

    -

    Релиз подготовлен для просмотра на Apple TV, iPad, iPhone, iPod Touch.
    Для просмотра данного релиза на компьютере с ОС Windows рекомендуется использовать VLC media player
    Скачать .torrent

    Скачать торрент-файл бесплатно и на максимальной скорости!

    Как скачивать? · Что такое торрент? · Рейтинг и ограничения

    !ВНИМАНИЕ!
    Сайт не распространяет и не хранит электронные версии произведений, а занимается лишь лишь предоставлением доступа к создаваемому пользователями каталогу ссылок на торрент-файлы, которые содержат только списки хеш-сумм, убедительная просьба с жалобами обращаться напрямую к пользователю. Файлы для обмена на трекере предоставлены пользователями сайта, и администрация не несёт ответственности за их содержание. Просьба не заливать файлы, защищенные авторскими правами, а также файлы нелегального содержания!


    _________________
    [Профиль] [ЛС]
    Показать сообщения:    
    Ответить на тему

    Текущее время: Сегодня, в 07:11

    Часовой пояс: GMT + 2



    Вы не можете начинать темы
    Вы не можете отвечать на сообщения
    Вы не можете редактировать свои сообщения
    Вы не можете удалять свои сообщения
    Вы не можете голосовать в опросах
    Вы не можете прикреплять файлы к сообщениям
    Вы не можете скачивать файлы