BitTorrentTracker PerecTracker.org
BitTorrentTracker PerecTracker.org
    
Регистрация  ·  Вход
 
 · 
Забыли пароль?

  • Губка Боб в 3D / The SpongeBob Movie: Sponge Out of Water (Пол Тиббит / Paul Tibbitt ) [2015, США, Мультфильм, комедия, приключения, семейный, BDRip, HD (720p)] DUB + Original + sub (rus, eng, ukr)

    Ответить на тему
     
    Автор Сообщение

    Light

    Создавать темы 07-Янв-2016 04:26

           

    [Цитировать]

    Губка Боб в 3D / The SpongeBob Movie: Sponge Out of Water
    «Всё квадратное станет явным»
    5.586 / 10 6.30 / 10
    -Год выпуска: 2015
    Страна: США
    Жанр: Мультфильм, комедия, приключения, семейный
    Продолжительность: 01:32:34
    Перевод: Дублированный (Blu-ray CEE)
    Оригинальная аудиодорожка: Есть
    Cубтитры: Русские форсированные, Русские, Английские, Украинские
    Режиссёр: Пол Тиббит
    Сценарий: Стивен Хилленбёрг, Гленн Бергер, Джонатан Айбел
    Продюсер: Мэри Пэрент, Пол Тиббит, Кейл Бойтер
    Оператор: Фил Мейхью
    Композитор: Джон Дебни
    Художник: Люк Фриборн, Питер Беннетт, Присцилла Эллиотт
    Монтаж: Дэвид Йен Сэлтер
    В ролях: Том Кенни, Антонио Бандерас, Эрик Бауза, Тим Конуэй, Эдди Дизен, Роб Полсен, Кевин Майкл Ричардсон, Эйприл Стюарт, Кри Саммер, Билли Уэст
    Бюджет: $74 000 000
    Сборы в США: $162 994 032
    Сборы в мире: + $148 600 000 = $311 594 032
    Сборы в России: $11 155 657
    Мировая премьера: 28 января 2015
    Премьера (РФ): 12 февраля 2015, «Централ Партнершип»
    Релиз на DVD: 9 июня 2015, «Новый Диск»
    Релиз на Blu-Ray: 6 июля 2015, «Новый Диск»
    Описание: Всемирный любимчик со дна океана Губка Боб Квадратные Штаны должен спасти свой глубоководный мир, но для этого ему и его друзьям придется выбраться на сушу и оказаться в нашем.-Качество исходника: BDRemux (HDClub)
    Качество: BDRip
    Тип: HD (720p)
    Контейнер: M4V
    Видео: H.264, 1280x720, 16:9, 3 500 Kbps, 23.976 fps
    Аудио 1: Русский/Дублированный (Blu-ray CEE), AAC / 2.0 / 157 Kbps / 48.0 KHz
    Аудио 2: Английский/Оригинальная дорожка , AAC / 2.0 / 158 Kbps / 48.0 KHz
    Аудио 3: Украинский/Дублированный (Blu-ray CEE), AAC / 2.0 / 157 Kbps / 48.0 KHz
    Аудио 4: Русский/Дублированный (Blu-ray CEE), AC-3 / 5.1 / 640 Kbps / 48.0 KHz
    Аудио 5: Английский/Оригинальная дорожка , AC-3 / 5.1 / 640 Kbps / 48.0 KHz
    Аудио 6: Украинский/Дублированный (Blu-ray CEE), AC-3 / 5.1 / 640 Kbps / 48.0 KHz
    Субтитры 1: Русские форсированные
    Субтитры 2: Русские полные
    Субтитры 3: Английские полные
    Субтитры 4: Украинские полные
    -

    iTunes Meta Tags

    Sort Name: SpongeBob Movie: Sponge Out of Water
    XID: Apple:vendor_id:2015-672398
    contentID: 958319506
    Copyright: © 2015 Paramount Pictures and Viacom International Inc. All Rights Reserved.
    Screenwriters: Стивен Хилленбёрг, Гленн Бергер, Джонатан Айбел
    Producers: Мэри Пэрент, Пол Тиббит, Кейл Бойтер
    Director: Пол Тиббит
    Cast: Антонио Бандерас, Том Кенни, Эрик Бауза, Тим Конуэй, Эдди Дизен, Роб Полсен, Кевин Майкл Ричардсон, Эйприл Стюарт, Кри Саммер, Билли Уэст, Сергей Балабанов, Юрий Маляров, Иван Агапов, Юрий Меншагин, Мария Овчинникова
    Studio: Paramount Pictures
    Rating: 9
    Long Description: Всемирный любимчик со дна океана Губка Боб Квадратные Штаны должен спасти свой глубоководный мир, но для этого ему и его друзьям придется выбраться на сушу и оказаться в нашем.
    Description: Всемирный любимчик со дна океана Губка Боб Квадратные Штаны должен спасти свой глубоководный мир, но для этого ему и его друзьям придется выбраться на сушу и оказаться в нашем.
    Release Date: 2015-01-28T08:00:00Z
    Genre: Kids & Family
    Artist: Paul Tibbitt & Mike Mitchell
    Name: The SpongeBob Movie: Sponge Out of Water

    MediaInfo

    General
    Complete name                            : /Users/imac/HandBrake/Gubka.Bob.(2015).720p.m4v
    Format                                   : MPEG-4
    Codec ID                                 : M4V
    File size                                : 3.82 GiB
    Duration                                 : 1h 32mn
    Overall bit rate mode                    : Variable
    Overall bit rate                         : 5 902 Kbps
    Movie name                               : The SpongeBob Movie: Sponge Out of Water
    Performer                                : Paul Tibbitt & Mike Mitchell
    Genre                                    : Kids & Family
    Recorded date                            : UTC 2015-01-28 08:00:00
    Encoded date                             : UTC 2015-06-08 10:51:10
    Tagged date                              : UTC 2015-06-08 10:57:17
    Copyright                                : © 2015 Paramount Pictures and Viacom International Inc. All Rights Reserved.
    Cover                                    : Yes
    sonm                                     : SpongeBob Movie: Sponge Out of Water
    desc                                     : Всемирный любимчик со дна океана Губка Боб Квадратные Штаны должен спасти свой глубоководный мир, но для этого ему и его друзьям придется выбраться на сушу и оказаться в нашем.
    ldes                                     : Всемирный любимчик со дна океана Губка Боб Квадратные Штаны должен спасти свой глубоководный мир, но для этого ему и его друзьям придется выбраться на сушу и оказаться в нашем.
    hdvd                                     : 1
    stik                                     : 9
    rtng                                     : 0
    cnID                                     : 958319506
    xid                                      : Apple:vendor_id:2015-672398
    iTunEXTC                                 : mpaa|PG|200|
    iTunMOVI                                 : <?xml version=\"1.0\" encoding=\"UTF-8\"?> / <!DOCTYPE plist PUBLIC \"-//Apple//DTD PLIST 1.0//EN\" \"http://anonym.to/?http://www.apple.com/DTDs/PropertyList-1.0.dtd\"> / <plist version=\"1.0\"> / <dict> /  <key>cast</key> /  <array> /   <dict> /    <key>name</key> /    <string>Антонио Бандерас</string> /   </dict> /   <dict> /    <key>name</key> /    <string>Том Кенни</string> /   </dict> /   <dict> /    <key>name</key> /    <string>Эрик Бауза</string> /   </dict> /   <dict> /    <key>name</key> /    <string>Тим Конуэй</string> /   </dict> /   <dict> /    <key>name</key> /    <string>Эдди Дизен</string> /   </dict> /   <dict> /    <key>name</key> /    <string>Роб Полсен</string> /   </dict> /   <dict> /    <key>name</key> /    <string>Кевин Майкл Ричардсон</string> /   </dict> /   <dict> /    <key>name</key> /    <string>Эйприл Стюарт</string> /   </dict> /   <dict> /    <key>name</key> /    <string>Кри Саммер</string> /   </dict> /   <dict> /    <key>name</key> /    <string>Билли Уэст</string> /   </dict> /   <dict> /    <key>name</key> /    <string>Сергей Балабанов</string> /   </dict> /   <dict> /    <key>name</key> /    <string>Юрий Маляров</string> /   </dict> /   <dict> /    <key>name</key> /    <string>Иван Агапов</string> /   </dict> /   <dict> /    <key>name</key> /    <string>Юрий Меншагин</string> /   </dict> /   <dict> /    <key>name</key> /    <string>Мария Овчинникова</string> /   </dict> /  </array> /  <key>directors</key> /  <array> /   <dict> /    <key>name</key> /    <string>Пол Тиббит</string> /   </dict> /  </array> /  <key>producers</key> /  <array> /   <dict> /    <key>name</key> /    <string>Мэри Пэрент</string> /   </dict> /   <dict> /    <key>name</key> /    <string>Пол Тиббит</string> /   </dict> /   <dict> /    <key>name</key> /    <string>Кейл Бойтер</string> /   </dict> /  </array> /  <key>screenwriters</key> /  <array> /   <dict> /    <key>name</key> /    <string>Стивен Хилленбёрг</string> /   </dict> /   <dict> /    <key>name</key> /    <string>Гленн Бергер</string> /   </dict> /   <dict> /    <key>name</key> /    <string>Джонатан Айбел</string> /   </dict> /  </array> /  <key>studio</key> /  <string>Paramount Pictures</string> / </dict> / </plist>
    Video #1
    ID                                       : 1
    Format                                   : AVC
    Format/Info                              : Advanced Video Codec
    Format profile                           : High@L3.1
    Format settings, CABAC                   : No
    Format settings, ReFrames                : 3 frames
    Codec ID                                 : avc1
    Codec ID/Info                            : Advanced Video Coding
    Duration                                 : 1h 32mn
    Bit rate mode                            : Variable
    Bit rate                                 : 3 500 Kbps
    Width                                    : 1 280 pixels
    Height                                   : 720 pixels
    Display aspect ratio                     : 16:9
    Frame rate mode                          : Variable
    Frame rate                               : 23.976 fps
    Minimum frame rate                       : 23.974 fps
    Maximum frame rate                       : 23.981 fps
    Color space                              : YUV
    Chroma subsampling                       : 4:2:0
    Bit depth                                : 8 bits
    Scan type                                : Progressive
    Bits/(Pixel*Frame)                       : 0.158
    Stream size                              : 2.26 GiB (59%)
    Writing library                          : x264 core 142 r2479 dd79a61
    Encoding settings                        : cabac=0 / ref=3 / deblock=1:-3:-3 / analyse=0x3:0x113 / me=umh / subme=9 / psy=1 / psy_rd=1.00:0.15 / mixed_ref=1 / me_range=32 / chroma_me=1 / trellis=0 / 8x8dct=1 / cqm=0 / deadzone=21,11 / fast_pskip=0 / chroma_qp_offset=-2 / threads=36 / lookahead_threads=3 / sliced_threads=0 / nr=0 / decimate=0 / interlaced=0 / bluray_compat=0 / constrained_intra=0 / bframes=3 / b_pyramid=0 / b_adapt=2 / b_bias=0 / direct=1 / weightb=0 / open_gop=0 / weightp=0 / keyint=240 / keyint_min=24 / scenecut=40 / intra_refresh=0 / rc_lookahead=40 / rc=2pass / mbtree=1 / bitrate=3500 / ratetol=1.0 / qcomp=0.65 / qpmin=0 / qpmax=69 / qpstep=4 / cplxblur=20.0 / qblur=0.5 / vbv_maxrate=9500 / vbv_bufsize=9500 / nal_hrd=none / filler=0 / ip_ratio=1.40 / aq=1:1.10
    Language                                 : English
    Encoded date                             : UTC 2015-06-08 10:51:10
    Tagged date                              : UTC 2015-06-08 10:51:19
    Color primaries                          : BT.709-5, BT.1361, IEC 61966-2-4, SMPTE RP177
    Transfer characteristics                 : BT.709-5, BT.1361
    Matrix coefficients                      : BT.709-5, BT.1361, IEC 61966-2-4 709, SMPTE RP177
    Video #2
    ID                                       : 13
    Format                                   : JPEG
    Codec ID                                 : jpeg
    Duration                                 : 1h 32mn
    Bit rate mode                            : Variable
    Bit rate                                 : 1 319 bps
    Width                                    : 640 pixels
    Height                                   : 360 pixels
    Display aspect ratio                     : 16:9
    Frame rate mode                          : Variable
    Frame rate                               : 0.003 fps
    Minimum frame rate                       : 0.002 fps
    Maximum frame rate                       : 0.006 fps
    Color space                              : YUV
    Chroma subsampling                       : 4:2:0
    Bit depth                                : 8 bits
    Compression mode                         : Lossy
    Bits/(Pixel*Frame)                       : 1.908
    Stream size                              : 966 KiB (0%)
    Language                                 : English
    Encoded date                             : UTC 2015-06-08 10:51:24
    Tagged date                              : UTC 2015-06-08 10:51:24
    Audio #1
    ID                                       : 2
    Format                                   : AAC
    Format/Info                              : Advanced Audio Codec
    Format profile                           : LC
    Codec ID                                 : 40
    Duration                                 : 1h 32mn
    Bit rate mode                            : Variable
    Bit rate                                 : 157 Kbps
    Maximum bit rate                         : 265 Kbps
    Channel(s)                               : 2 channels
    Channel positions                        : Front: L R
    Sampling rate                            : 48.0 KHz
    Compression mode                         : Lossy
    Stream size                              : 104 MiB (3%)
    Language                                 : Russian
    Encoded date                             : UTC 2015-06-08 10:51:10
    Tagged date                              : UTC 2015-06-08 10:51:19
    Audio #2
    ID                                       : 3
    Format                                   : AAC
    Format/Info                              : Advanced Audio Codec
    Format profile                           : LC
    Codec ID                                 : 40
    Duration                                 : 1h 32mn
    Bit rate mode                            : Variable
    Bit rate                                 : 158 Kbps
    Maximum bit rate                         : 259 Kbps
    Channel(s)                               : 2 channels
    Channel positions                        : Front: L R
    Sampling rate                            : 48.0 KHz
    Compression mode                         : Lossy
    Stream size                              : 105 MiB (3%)
    Language                                 : English
    Encoded date                             : UTC 2015-06-08 10:51:10
    Tagged date                              : UTC 2015-06-08 10:51:19
    Audio #3
    ID                                       : 4
    Format                                   : AAC
    Format/Info                              : Advanced Audio Codec
    Format profile                           : LC
    Codec ID                                 : 40
    Duration                                 : 1h 32mn
    Bit rate mode                            : Variable
    Bit rate                                 : 157 Kbps
    Maximum bit rate                         : 265 Kbps
    Channel(s)                               : 2 channels
    Channel positions                        : Front: L R
    Sampling rate                            : 48.0 KHz
    Compression mode                         : Lossy
    Stream size                              : 104 MiB (3%)
    Language                                 : Ukrainian
    Encoded date                             : UTC 2015-06-08 10:51:10
    Tagged date                              : UTC 2015-06-08 10:51:19
    Audio #4
    ID                                       : 5
    Format                                   : AC-3
    Format/Info                              : Audio Coding 3
    Mode extension                           : CM (complete main)
    Format settings, Endianness              : Big
    Codec ID                                 : ac-3
    Duration                                 : 1h 32mn
    Bit rate mode                            : Constant
    Bit rate                                 : 640 Kbps
    Channel(s)                               : 6 channels
    Channel positions                        : Front: L C R, Side: L R, LFE
    Sampling rate                            : 48.0 KHz
    Bit depth                                : 16 bits
    Compression mode                         : Lossy
    Stream size                              : 424 MiB (11%)
    Language                                 : Russian
    Encoded date                             : UTC 2015-06-08 10:51:10
    Tagged date                              : UTC 2015-06-08 10:51:17
    Audio #5
    ID                                       : 6
    Format                                   : AC-3
    Format/Info                              : Audio Coding 3
    Mode extension                           : CM (complete main)
    Format settings, Endianness              : Big
    Codec ID                                 : ac-3
    Duration                                 : 1h 32mn
    Bit rate mode                            : Constant
    Bit rate                                 : 640 Kbps
    Channel(s)                               : 6 channels
    Channel positions                        : Front: L C R, Side: L R, LFE
    Sampling rate                            : 48.0 KHz
    Bit depth                                : 16 bits
    Compression mode                         : Lossy
    Stream size                              : 424 MiB (11%)
    Language                                 : English
    Encoded date                             : UTC 2015-06-08 10:51:10
    Tagged date                              : UTC 2015-06-08 10:51:17
    Audio #6
    ID                                       : 7
    Format                                   : AC-3
    Format/Info                              : Audio Coding 3
    Mode extension                           : CM (complete main)
    Format settings, Endianness              : Big
    Codec ID                                 : ac-3
    Duration                                 : 1h 32mn
    Bit rate mode                            : Constant
    Bit rate                                 : 640 Kbps
    Channel(s)                               : 6 channels
    Channel positions                        : Front: L C R, Side: L R, LFE
    Sampling rate                            : 48.0 KHz
    Bit depth                                : 16 bits
    Compression mode                         : Lossy
    Stream size                              : 424 MiB (11%)
    Language                                 : Ukrainian
    Encoded date                             : UTC 2015-06-08 10:51:10
    Tagged date                              : UTC 2015-06-08 10:51:17
    Text #1
    ID                                       : 8
    Format                                   : Timed text
    Muxing mode                              : sbtl
    Codec ID                                 : tx3g
    Duration                                 : 49mn 40s
    Bit rate mode                            : Variable
    Bit rate                                 : 0 bps
    Stream size                              : 54.0 Bytes (0%)
    Language                                 : Russian
    Encoded date                             : UTC 2015-06-08 10:51:10
    Tagged date                              : UTC 2015-06-08 10:51:10
    Text #2
    ID                                       : 9
    Format                                   : Timed text
    Muxing mode                              : sbtl
    Codec ID                                 : tx3g
    Duration                                 : 1h 32mn
    Bit rate mode                            : Variable
    Bit rate                                 : 95 bps
    Stream size                              : 64.1 KiB (0%)
    Language                                 : Russian
    Encoded date                             : UTC 2015-06-08 10:51:10
    Tagged date                              : UTC 2015-06-08 10:51:10
    Text #3
    ID                                       : 10
    Format                                   : Timed text
    Muxing mode                              : sbtl
    Codec ID                                 : tx3g
    Duration                                 : 1h 32mn
    Bit rate mode                            : Variable
    Bit rate                                 : 97 bps
    Stream size                              : 66.0 KiB (0%)
    Language                                 : English
    Encoded date                             : UTC 2015-06-08 10:51:10
    Tagged date                              : UTC 2015-06-08 10:51:10
    Text #4
    ID                                       : 11
    Format                                   : Timed text
    Muxing mode                              : sbtl
    Codec ID                                 : tx3g
    Duration                                 : 1h 32mn
    Bit rate mode                            : Variable
    Bit rate                                 : 102 bps
    Stream size                              : 69.2 KiB (0%)
    Language                                 : Ukrainian
    Encoded date                             : UTC 2015-06-08 10:51:10
    Tagged date                              : UTC 2015-06-08 10:51:10
    Text #5
    ID                                       : 12
    Format                                   : Apple text
    Codec ID                                 : text
    Duration                                 : 1h 32mn
    Bit rate mode                            : Variable
    Bit rate                                 : 1 bps
    Stream size                              : 423 Bytes (0%)
    Language                                 : English
    Encoded date                             : UTC 2015-06-08 10:51:19
    Tagged date                              : UTC 2015-06-08 10:51:19
    Menu
    00:00:00.000                             : Chapter 1
    00:03:39.803                             : Chapter 2
    00:06:21.381                             : Chapter 3
    00:12:29.165                             : Chapter 4
    00:18:20.975                             : Chapter 5
    00:22:51.495                             : Chapter 6
    00:30:14.021                             : Chapter 7
    00:35:37.469                             : Chapter 8
    00:39:50.513                             : Chapter 9
    00:43:12.840                             : Chapter 10
    00:50:53.884                             : Chapter 11
    00:55:15.812                             : Chapter 12
    01:00:02.641                             : Chapter 13
    01:04:18.897                             : Chapter 14
    01:10:15.795                             : Chapter 15
    01:16:19.742                             : Chapter 16
    01:20:28.615                             : Chapter 17
    01:23:30.380                             : Chapter 18

    x264 лог

    x264 [info]: frame I:1551  Avg QP:15.23  size:156836
    x264 [info]: frame P:56693 Avg QP:17.16  size: 29799
    x264 [info]: frame B:74930 Avg QP:20.22  size:  6629
    x264 [info]: consecutive B-frames:  9.0% 34.7% 39.7% 16.6%
    x264 [info]: mb I  I16..4:  9.6% 49.6% 40.8%
    x264 [info]: mb P  I16..4:  1.7%  4.3%  2.6%  P16..4: 44.7% 15.9%  8.0%  0.0%  0.0%    skip:22.9%
    x264 [info]: mb B  I16..4:  0.2%  0.6%  0.4%  B16..8: 27.4%  5.8%  1.1%  direct: 2.2%  skip:62.3%  L0:39.2% L1:52.9% BI: 7.8%
    x264 [info]: 8x8 transform intra:49.7% inter:39.7%
    x264 [info]: coded y,uvDC,uvAC intra: 76.6% 82.4% 62.3% inter: 16.1% 18.3% 12.6%
    x264 [info]: i16 v,h,dc,p: 38% 20%  8% 34%
    x264 [info]: i8 v,h,dc,ddl,ddr,vr,hd,vl,hu:  7% 11%  6% 11% 14% 12% 15% 10% 13%
    x264 [info]: i4 v,h,dc,ddl,ddr,vr,hd,vl,hu:  9% 12%  6% 11% 15% 13% 14%  9% 10%
    x264 [info]: i8c dc,h,v,p: 49% 22% 17% 12%
    x264 [info]: ref P L0: 74.9% 14.5% 10.6%
    x264 [info]: ref B L0: 76.6% 23.4%
    x264 [info]: kb/s:3499.00

    Скриншоты

    -

    Релиз подготовлен для просмотра на Apple TV, iPad, iPhone, iPod Touch.
    Для просмотра данного релиза на компьютере с ОС Windows рекомендуется использовать VLC media player
    Скачать .torrent

    Скачать торрент-файл бесплатно и на максимальной скорости!

    Как скачивать? · Что такое торрент? · Рейтинг и ограничения

    !ВНИМАНИЕ!
    Сайт не распространяет и не хранит электронные версии произведений, а занимается лишь лишь предоставлением доступа к создаваемому пользователями каталогу ссылок на торрент-файлы, которые содержат только списки хеш-сумм, убедительная просьба с жалобами обращаться напрямую к пользователю. Файлы для обмена на трекере предоставлены пользователями сайта, и администрация не несёт ответственности за их содержание. Просьба не заливать файлы, защищенные авторскими правами, а также файлы нелегального содержания!


    _________________
    [Профиль] [ЛС]
    Показать сообщения:    
    Ответить на тему

    Текущее время: Сегодня, в 04:36

    Часовой пояс: GMT + 2



    Вы не можете начинать темы
    Вы не можете отвечать на сообщения
    Вы не можете редактировать свои сообщения
    Вы не можете удалять свои сообщения
    Вы не можете голосовать в опросах
    Вы не можете прикреплять файлы к сообщениям
    Вы не можете скачивать файлы