BitTorrentTracker PerecTracker.org
BitTorrentTracker PerecTracker.org
    
Регистрация  ·  Вход
 
 · 
Забыли пароль?

  • Арнольд! / Hey Arnold! The Movie (Так Такер) [2002, США, мультфильм, комедия, приключения, семейный, WEB-DL HD (720p)] DUB, MVO, Original + SUB (eng)

    Ответить на тему
     
    Автор Сообщение

    Light

    Создавать темы 07-Янв-2016 04:26

           

    [Цитировать]

    Арнольд! / Hey Arnold! The Movie
    "A Big Problem Calls For A Big Head"
    6.846 / 10
    -Год выпуска: 2002
    Страна: США
    Жанр: мультфильм, комедия, приключения, семейный
    Продолжительность: 76 мин.
    Перевод: Профессиональный дублированный перевод и многоголосый закадровый перевод
    Оригинальная аудиодорожка: Есть
    Cубтитры: Английские полные
    Режиссёр: Так Такер
    Сценарий: Крэйг Бартлетт, Стив Викстен
    Продюсер: Крэйг Бартлетт, Элби Хехт, Марджори Кон
    Композитор: Джим Лэнг
    Художник: Гай Василович
    Монтаж: Кристофер Хинк
    В ролях: Спенсер Клейн, Франческа Смит, Дэн Кастелланета, Тресс МакНилл, Пол Сорвино, Дженнифер Джейсон Ли, Кристофер Ллойд, Винсент Скьявелли, Морис ЛаМарш, Кэт Сауси
    Роли дублировали: Ирина Гришина, Андрей Бархударов, Вячеслав Баранов, Дмитрий Филимонов, Александр Рыжков
    Бюджет: $3 000 000
    Сборы в США: $13 728 902
    Сборы в мире: + $1 520 406 = $15 249 308
    Мировая премьера: 28 июня 2002
    Описание: У безжалостного магната родился злодейский план: снести родной квартал Арнольда и выстроить на его месте огромный супермаркет. Время пошло, и кто-то должен встать на защиту уютного уголка. И этим кем-то станет... Арнольд.
    С хвостатой занудой Хельгой, тайно влюбленной в него, и с лучшим другом Джеральдом Арнольд устраивает забастовку, чтобы вернуть слову "прогресс" его истинное значение - находить новое очарование в старом добром квартале, который он называет своим "домом".-Качество исходника: WEB-DL 720p
    Качество: WEB-DL
    Тип: 720p
    Контейнер: m4v
    Видео: 1280x720 at 23.976 fps, MPEG-4 AVC, ~4000 kbps avg
    Аудио#1: Russian: 48 kHz, ААС, 2/0 (L,R), ~160.00 kbps avg |Дубляж, СТС|
    Аудио#2: Russian: 48 kHz, ААС, 2/0 (L,R), ~160.00 kbps avg |Дубляж, ТНТ|
    Аудио#3: Russian: 48 kHz, ААС, 2/0 (L,R), ~160.00 kbps avg |Многоголосый закадровый,Премьер Видео|
    Аудио#4: English: 48 kHz, ААС, 2/0 (L,R), ~160.00 kbps avg
    Аудио#5: English: 48 kHz, AC3, 3/2 (L,C,R,l,r) + LFE ch, ~448.00 kbps avg
    Субтитры №1: English: |Полные|-

    Знаете ли Вы, что...

    • Изначально мультфильм планировался для показа по ТВ, но в конце концов вышел в кинотеатрах.
    • Для мультфильма не было написано музыки.
    • Первоначально планировалось создать и второй мультфильм, который должен был стать последним эпизодом, после серии «Дневник», в конце которой Арнольд находит карту и решает отправиться в джунгли на поиски родителей. Известно, что сценарий второго полнометражного мультфильма давно написан Крэйгом Бартлеттом, он сам много говорил об этом в интервью и чатах с фанатами. Сначала «Nickelodeon» нравилась идея сиквела, но после провального выхода первой части, ситуация резко изменилась: проект заморозили и отложили на неопределённый срок. Крэйгу Бартлетту предложили работать на «Nickelodeon» условно, и через некоторое время, он ушёл с канала. Основная же проблема заключается в том, что права на мультсериал и все его продолжения остались у «Nickelodeon».

    -

    iTunes Meta Tags for country us

    Name: Hey Arnold! The Movie
    Artist: Tuck Tucker
    Genre: Kids & Family
    Release Date: 2002-06-28T08:00:00Z
    Description: У безжалостного магната родился злодейский план: снести родной квартал Арнольда и выстроить на его месте огромный супермаркет. Время пошло, и кто-то должен встать на защиту уютного уголка. И этим кем-то станет... Арнольд.
    Long Description: У безжалостного магната родился злодейский план: снести родной квартал Арнольда и выстроить на его месте огромный супермаркет. Время пошло, и кто-то должен встать на защиту уютного уголка. И этим кем-то станет... Арнольд.
    С хвостатой занудой Хельгой, тайно влюбленной в него, и с лучшим другом Джеральдом Арнольд устраивает забастовку, чтобы вернуть слову "прогресс" его истинное значение - находить новое очарование в старом добром квартале, который он называет своим "домом".
    Rating: PG
    Rating Annotation: Rated PG For some thematic elements.
    Studio: Paramount
    Cast: Спенсер Клейн, Франческа Смит, Дэн Кастелланета, Тресс МакНилл, Пол Сорвино, Дженнифер Джейсон Ли, Кристофер Ллойд, Винсент Скьявелли, Морис ЛаМарш, Кэт Сауси
    Director: Так Такер
    Producers: Крэйг Бартлетт, Элби Хехт, Марджори Кон
    Screenwriters: Крэйг Бартлетт, Стив Викстен
    Copyright: © 2002 by Paramount Pictures and Viacom International Inc. All Rights Reserved.
    contentID: 211298215
    XID: Paramount:vendor_id:33965001
    Sort Name: Hey Arnold! The Movie

    MediaInfo 720p Release

    General
    Complete name : Hey Arnold! The Movie (HD).m4v
    Format : MPEG-4
    Codec ID : M4V
    File size : 2.69 GiB
    Duration : 1h 15mn
    Overall bit rate mode : Variable
    Overall bit rate : 5 090 Kbps
    Movie name : Hey Arnold! The Movie
    Performer : Tuck Tucker
    Director : Так Такер
    Actor : Спенсер Клейн / Франческа Смит / Дэн Кастелланета / Тресс МакНилл / Пол Сорвино / Дженнифер Джейсон Ли / Кристофер Ллойд / Винсент Скьявелли / Морис ЛаМарш / Кэт Сауси
    Screenplay by : Крэйг Бартлетт / Стив Викстен
    Producer : Крэйг Бартлетт / Элби Хехт / Марджори Кон
    Production studio : Paramount
    Genre : Kids & Family
    ContentType : Short Film
    Description : У безжалостного магната родился злодейский план: снести родной квартал Арнольда и выстроить на его месте огромный супермаркет. Время пошло, и кто-то должен встать на защиту уютного уголка. И этим кем-то станет... Арнольд.
    Recorded date : UTC 2002-06-28 08:00:00
    Encoded date : UTC 2015-08-05 12:27:16
    Tagged date : UTC 2015-08-05 12:42:54
    Copyright : © 2002 by Paramount Pictures and Viacom International Inc. All Rights Reserved.
    Cover : Yes
    Rating : None
    Title/Sort : Hey Arnold! The Movie
    LongDescription : У безжалостного магната родился злодейский план: снести родной квартал Арнольда и выстроить на его месте огромный супермаркет. Время пошло, и кто-то должен встать на защиту уютного уголка. И этим кем-то станет... Арнольд. / С хвостатой занудой Хельгой, тайно влюбленной в него, и с лучшим другом Джеральдом Арнольд устраивает забастовку, чтобы вернуть слову "прогресс" его истинное значение - находить новое очарование в старом добром квартале, который он называет своим "домом".
    HDVideo : Yes
    AppleStoreCatalogID : 211298215
    Vendor : Paramount:vendor_id:33965001
    ContentRating : mpaa|PG|200|Rated PG For some thematic elements.
    Video #1
    ID : 1
    Format : AVC
    Format/Info : Advanced Video Codec
    Format profile : High@L3.1
    Format settings, CABAC : No
    Format settings, ReFrames : 2 frames
    Format settings, GOP : M=2, N=80
    Codec ID : avc1
    Codec ID/Info : Advanced Video Coding
    Duration : 1h 15mn
    Bit rate : 4 003 Kbps
    Width : 1 280 pixels
    Height : 720 pixels
    Display aspect ratio : 16:9
    Frame rate mode : Variable
    Frame rate : 23.976 fps
    Minimum frame rate : 23.810 fps
    Maximum frame rate : 24.390 fps
    Color space : YUV
    Chroma subsampling : 4:2:0
    Bit depth : 8 bits
    Scan type : Progressive
    Bits/(Pixel*Frame) : 0.181
    Stream size : 2.12 GiB (79%)
    Title : Main Program
    Language : English
    Encoded date : UTC 2015-08-05 12:27:16
    Tagged date : UTC 2015-08-05 12:30:07
    Color range : Limited
    Color primaries : BT.709
    Transfer characteristics : BT.709
    Matrix coefficients : BT.709
    Video #2
    ID : 9
    Format : JPEG
    Codec ID : jpeg
    Duration : 1h 15mn
    Bit rate mode : Variable
    Bit rate : 1 367 bps
    Width : 640 pixels
    Height : 360 pixels
    Display aspect ratio : 16:9
    Frame rate mode : Variable
    Frame rate : 0.003 fps
    Minimum frame rate : 0.002 fps
    Maximum frame rate : 0.006 fps
    Color space : YUV
    Chroma subsampling : 4:2:0
    Bit depth : 8 bits
    Compression mode : Lossy
    Bits/(Pixel*Frame) : 1.978
    Stream size : 779 KiB (0%)
    Title : Chapter Images
    Language : English
    Encoded date : UTC 2015-08-05 12:30:12
    Tagged date : UTC 2015-08-05 12:30:13
    Audio #1
    ID : 2
    Format : AAC
    Format/Info : Advanced Audio Codec
    Format profile : LC
    Codec ID : 40
    Duration : 1h 15mn
    Bit rate mode : Variable
    Bit rate : 165 Kbps
    Maximum bit rate : 219 Kbps
    Channel(s) : 2 channels
    Channel positions : Front: L R
    Sampling rate : 48.0 KHz
    Compression mode : Lossy
    Stream size : 89.2 MiB (3%)
    Title : Russian DUB CTC Stereo
    Language : Russian
    Encoded date : UTC 2015-08-05 12:27:16
    Tagged date : UTC 2015-08-05 12:27:23
    Audio #2
    ID : 3
    Format : AAC
    Format/Info : Advanced Audio Codec
    Format profile : LC
    Codec ID : 40
    Duration : 1h 15mn
    Bit rate mode : Variable
    Bit rate : 130 Kbps
    Maximum bit rate : 201 Kbps
    Channel(s) : 2 channels
    Channel positions : Front: L R
    Sampling rate : 48.0 KHz
    Compression mode : Lossy
    Stream size : 70.2 MiB (3%)
    Title : Russian DUB THT Stereo
    Language : Russian
    Encoded date : UTC 2015-08-05 12:27:16
    Tagged date : UTC 2015-08-05 12:27:23
    Audio #3
    ID : 4
    Format : AAC
    Format/Info : Advanced Audio Codec
    Format profile : LC
    Codec ID : 40
    Duration : 1h 15mn
    Bit rate mode : Variable
    Bit rate : 164 Kbps
    Maximum bit rate : 229 Kbps
    Channel(s) : 2 channels
    Channel positions : Front: L R
    Sampling rate : 48.0 KHz
    Compression mode : Lossy
    Stream size : 89.1 MiB (3%)
    Title : Russian MVO Premier Video Stereo
    Language : Russian
    Encoded date : UTC 2015-08-05 12:27:16
    Tagged date : UTC 2015-08-05 12:27:23
    Audio #4
    ID : 5
    Format : AAC
    Format/Info : Advanced Audio Codec
    Format profile : LC
    Codec ID : 40
    Duration : 1h 15mn
    Bit rate mode : Variable
    Bit rate : 165 Kbps
    Maximum bit rate : 271 Kbps
    Channel(s) : 2 channels
    Channel positions : Front: L R
    Sampling rate : 48.0 KHz
    Compression mode : Lossy
    Stream size : 89.7 MiB (3%)
    Title : English Stereo
    Language : English
    Encoded date : UTC 2015-08-05 12:27:16
    Tagged date : UTC 2015-08-05 12:27:23
    Audio #5
    ID : 6
    Format : AC-3
    Format/Info : Audio Coding 3
    Mode extension : CM (complete main)
    Format settings, Endianness : Big
    Codec ID : ac-3
    Duration : 1h 15mn
    Bit rate mode : Constant
    Bit rate : 448 Kbps
    Channel(s) : 6 channels
    Channel positions : Front: L C R, Side: L R, LFE
    Sampling rate : 48.0 KHz
    Bit depth : 16 bits
    Compression mode : Lossy
    Stream size : 243 MiB (9%)
    Title : English DD 5.1
    Language : English
    Encoded date : UTC 2015-08-05 12:27:16
    Tagged date : UTC 2015-08-05 12:30:07
    Text
    ID : 7
    Format : Timed Text
    Muxing mode : sbtl
    Codec ID : tx3g
    Duration : 1h 11mn
    Bit rate mode : Variable
    Bit rate : 82 bps
    Stream size : 43.1 KiB (0%)
    Title : English Subtitle
    Language : English
    Encoded date : UTC 2015-08-05 12:27:16
    Tagged date : UTC 2015-08-05 12:27:16
    Menu #1
    00:00:00.000 : Change Is Good
    00:05:08.000 : Big Bob's Beepers
    00:10:02.000 : Blockapalooza
    00:15:18.000 : Unhappy Neighbors
    00:21:36.000 : Tomato Document
    00:26:35.000 : Future Tech Industries
    00:32:40.000 : Equipment Specialist
    00:37:07.000 : Backup Plan
    00:42:09.000 : Another Clue From Deep Voice
    00:47:11.000 : Hopeless Mission
    00:52:35.000 : Helga's Confession
    00:58:47.000 : Runaway Bus
    01:03:48.000 : Stopping The Bulldozers
    01:06:48.000 : We Saved the Neighborhood.
    Menu #2
    ID : 8
    Codec ID : text
    Duration : 1h 15mn
    Title : Chapter Titles
    Language : English
    Encoded date : UTC 2015-08-05 12:30:07
    Tagged date : UTC 2015-08-05 12:30:07
    00:00:00.000 : Change Is Good
    00:05:08.000 : Big Bob's Beepers
    00:10:02.000 : Blockapalooza
    00:15:18.000 : Unhappy Neighbors
    00:21:36.000 : Tomato Document
    00:26:35.000 : Future Tech Industries
    00:32:40.000 : Equipment Specialist
    00:37:07.000 : Backup Plan
    00:42:09.000 : Another Clue From Deep Voice
    00:47:11.000 : Hopeless Mission
    00:52:35.000 : Helga's Confession
    00:58:47.000 : Runaway Bus
    01:03:48.000 : Stopping The Bulldozers
    01:06:48.000 : We Saved the Neighborhood.
    Bit rate mode : VBR

    Скриншоты 720p Release

    Цитата:
    Цитата:

    Роли озвучивают:
    СТС - Татьяна Весёлкина, Ольга Шорохова, Дмитрий Филимонов, Никита Прозоровский, Людмила Гнилова;
    ТНТ - Дмитрий Филимонов, Людмила Ильина, Ольга Сирина, Александр Котов;
    Премьер Видео Фильм - Людмила Ильина, Всеволод Кузнецов;-
    • Большое спасибо Lexa1988-L1 за все дороги;
    • Покупка, работа с WEB-DL и звуком -Azureus-.
    -

    Релиз подготовлен для просмотра на Apple TV, iPad, iPhone, iPod Touch.
    Для просмотра данного релиза на компьютере с ОС Windows рекомендуется использовать VLC media player
    Скачать .torrent

    Скачать торрент-файл бесплатно и на максимальной скорости!

    Как скачивать? · Что такое торрент? · Рейтинг и ограничения

    !ВНИМАНИЕ!
    Сайт не распространяет и не хранит электронные версии произведений, а занимается лишь лишь предоставлением доступа к создаваемому пользователями каталогу ссылок на торрент-файлы, которые содержат только списки хеш-сумм, убедительная просьба с жалобами обращаться напрямую к пользователю. Файлы для обмена на трекере предоставлены пользователями сайта, и администрация не несёт ответственности за их содержание. Просьба не заливать файлы, защищенные авторскими правами, а также файлы нелегального содержания!


    _________________
    [Профиль] [ЛС]
    Показать сообщения:    
    Ответить на тему

    Текущее время: Сегодня, в 04:18

    Часовой пояс: GMT + 2



    Вы не можете начинать темы
    Вы не можете отвечать на сообщения
    Вы не можете редактировать свои сообщения
    Вы не можете удалять свои сообщения
    Вы не можете голосовать в опросах
    Вы не можете прикреплять файлы к сообщениям
    Вы не можете скачивать файлы