BitTorrentTracker PerecTracker.org
BitTorrentTracker PerecTracker.org
    
Регистрация  ·  Вход
 
 · 
Забыли пароль?

  • Странные чары / Strange Magic (Гари Ридстром / Gary Rydstrom ) [2015, США, Мультфильм, мюзикл, фэнтези, семейный, WEB-DL, HD (720p)] DUB + Original + sub (rus, eng)

    Ответить на тему
     
    Автор Сообщение

    Light

    Создавать темы 07-Янв-2016 04:26

           

    [Цитировать]

    Странные чары / Strange Magic
    «For ages two worlds lived divided: the magical and the mysterious. Until someone crossed the line...»
    6.932 / 10 5.70 / 10
    -Год выпуска: 2015
    Страна: США
    Жанр: Мультфильм, мюзикл, фэнтези, семейный
    Продолжительность: 01:39:38
    Перевод: Дублированный (iTunes)
    Оригинальная аудиодорожка: Есть
    Cубтитры: Русские (песни), Русские, Английские
    Режиссёр: Гари Ридстром
    Сценарий: Ирен Меччи, Гари Ридстром, Дэвид Беренбаум
    Продюсер: Kiri Zooper, Бен Лок, Джордж Лукас
    Композитор: Мариус Де Фриз
    Художник: Саймон Мартон
    Монтаж: Крис Пламмер, Джон Дэмиен Райан
    В ролях: Алан Камминг, Эван Рэйчел Вуд, Элайджа Келли, Мередит Энн Булл, Сэм Палладио, Кристин Ченоуэт, Альфред Молина, Майя Рудольф, Боб Эйнштейн, Петер Стормаре
    Сборы в США: $12 429 583
    Мировая премьера: 23 января 2015
    Описание: Музыкальная сказка о гоблинах, эльфах, феях и бесах, рассказанная под мелодии популярных песен последних шести десятилетий.-Качество исходника: WEB-DL 720p (HDClub)
    Качество: WEB-DL
    Тип: HD (720p)
    Контейнер: M4V
    Видео: H.264, 1280x542, 2.35:1, 4 258 Kbps, 23.976 fps
    Аудио 1: Русский/Дублированный (iTunes), AAC / 2.0 / 157 Kbps / 48.0 KHz
    Аудио 2: Английский/Оригинальная дорожка , AAC / 2.0 / 157 Kbps / 48.0 KHz
    Аудио 3: Русский/Дублированный (iTunes), AC-3 / 5.1 / 384 Kbps / 48.0 KHz
    Субтитры 1: Русские (песни)
    Субтитры 2: Русские полные
    Субтитры 3: Английские полные
    -

    iTunes Meta Tags

    Sort Name: Strange Magic
    XID: Apple:vendor_id:2015-843985
    contentID: 958273439
    Copyright: © 2015 Lucasfilm Ltd. All Rights Reserved.
    Screenwriters: Ирен Меччи, Гари Ридстром, Дэвид Беренбаум
    Producers: Kiri Zooper, Бен Лок, Джордж Лукас
    Director: Гари Ридстром
    Cast: Алан Камминг, Эван Рэйчел Вуд, Элайджа Келли, Мередит Энн Булл, Сэм Палладио, Кристин Ченоуэт, Майя Рудольф, Петер Стормаре, Llou Johnson, Бренда Чепмен
    Studio: Touchstone Pictures
    Rating: 9
    Long Description: Музыкальная сказка о гоблинах, эльфах, феях и бесах, рассказанная под мелодии популярных песен последних шести десятилетий.
    Description: Музыкальная сказка о гоблинах, эльфах, феях и бесах, рассказанная под мелодии популярных песен последних шести десятилетий.
    Release Date: 2015-01-23T08:00:00Z
    Genre: Kids & Family
    Artist: Gary Rydstrom
    Name: Strange Magic (2015)

    MediaInfo

    General
    Complete name                            : /Users/imac/HandBrake/Strange.Magic.720p.WEB-DL.m4v
    Format                                   : MPEG-4
    Codec ID                                 : M4V
    File size                                : 3.45 GiB
    Duration                                 : 1h 39mn
    Overall bit rate mode                    : Variable
    Overall bit rate                         : 4 963 Kbps
    Movie name                               : Strange Magic (2015)
    Performer                                : Gary Rydstrom
    Genre                                    : Kids & Family
    Recorded date                            : UTC 2015-01-23 08:00:00
    Encoded date                             : UTC 2015-10-04 22:41:56
    Tagged date                              : UTC 2015-10-05 07:28:27
    Copyright                                : © 2015 Lucasfilm Ltd. All Rights Reserved.
    Cover                                    : Yes
    sonm                                     : Strange Magic
    desc                                     : Музыкальная сказка о гоблинах, эльфах, феях и бесах, рассказанная под мелодии популярных песен последних шести десятилетий.
    ldes                                     : Музыкальная сказка о гоблинах, эльфах, феях и бесах, рассказанная под мелодии популярных песен последних шести десятилетий.
    hdvd                                     : 1
    stik                                     : 9
    rtng                                     : 0
    cnID                                     : 958273439
    xid                                      : Apple:vendor_id:2015-843985
    iTunEXTC                                 : mpaa|PG|200|
    iTunMOVI                                 : <?xml version=\"1.0\" encoding=\"UTF-8\"?> / <!DOCTYPE plist PUBLIC \"-//Apple//DTD PLIST 1.0//EN\" \"http://anonym.to/?http://www.apple.com/DTDs/PropertyList-1.0.dtd\"> / <plist version=\"1.0\"> / <dict> /  <key>cast</key> /  <array> /   <dict> /    <key>name</key> /    <string>Алан Камминг</string> /   </dict> /   <dict> /    <key>name</key> /    <string>Эван Рэйчел Вуд</string> /   </dict> /   <dict> /    <key>name</key> /    <string>Элайджа Келли</string> /   </dict> /   <dict> /    <key>name</key> /    <string>Мередит Энн Булл</string> /   </dict> /   <dict> /    <key>name</key> /    <string>Сэм Палладио</string> /   </dict> /   <dict> /    <key>name</key> /    <string>Кристин Ченоуэт</string> /   </dict> /   <dict> /    <key>name</key> /    <string>Майя Рудольф</string> /   </dict> /   <dict> /    <key>name</key> /    <string>Петер Стормаре</string> /   </dict> /   <dict> /    <key>name</key> /    <string>Llou Johnson</string> /   </dict> /   <dict> /    <key>name</key> /    <string>Бренда Чепмен</string> /   </dict> /  </array> /  <key>directors</key> /  <array> /   <dict> /    <key>name</key> /    <string>Гари Ридстром</string> /   </dict> /  </array> /  <key>producers</key> /  <array> /   <dict> /    <key>name</key> /    <string>Kiri Zooper</string> /   </dict> /   <dict> /    <key>name</key> /    <string>Бен Лок</string> /   </dict> /   <dict> /    <key>name</key> /    <string>Джордж Лукас</string> /   </dict> /  </array> /  <key>screenwriters</key> /  <array> /   <dict> /    <key>name</key> /    <string>Ирен Меччи</string> /   </dict> /   <dict> /    <key>name</key> /    <string>Гари Ридстром</string> /   </dict> /   <dict> /    <key>name</key> /    <string>Дэвид Беренбаум</string> /   </dict> /  </array> /  <key>studio</key> /  <string>Touchstone Pictures</string> / </dict> / </plist>
    Video #1
    ID                                       : 1
    Format                                   : AVC
    Format/Info                              : Advanced Video Codec
    Format profile                           : Main@L3.1
    Format settings, CABAC                   : No
    Format settings, ReFrames                : 2 frames
    Codec ID                                 : avc1
    Codec ID/Info                            : Advanced Video Coding
    Duration                                 : 1h 39mn
    Bit rate mode                            : Variable
    Bit rate                                 : 4 258 Kbps
    Width                                    : 1 280 pixels
    Height                                   : 542 pixels
    Display aspect ratio                     : 2.35:1
    Frame rate mode                          : Constant
    Frame rate                               : 23.976 fps
    Color space                              : YUV
    Chroma subsampling                       : 4:2:0
    Bit depth                                : 8 bits
    Scan type                                : Progressive
    Bits/(Pixel*Frame)                       : 0.256
    Stream size                              : 2.96 GiB (86%)
    Language                                 : English
    Encoded date                             : UTC 2015-10-04 22:41:56
    Tagged date                              : UTC 2015-10-04 22:42:12
    Color primaries                          : BT.709-5, BT.1361, IEC 61966-2-4, SMPTE RP177
    Transfer characteristics                 : BT.709-5, BT.1361
    Matrix coefficients                      : BT.709-5, BT.1361, IEC 61966-2-4 709, SMPTE RP177
    Video #2
    ID                                       : 9
    Format                                   : JPEG
    Codec ID                                 : jpeg
    Duration                                 : 1h 39mn
    Bit rate mode                            : Variable
    Bit rate                                 : 1 688 bps
    Width                                    : 640 pixels
    Height                                   : 271 pixels
    Display aspect ratio                     : 2.35:1
    Frame rate mode                          : Variable
    Frame rate                               : 0.005 fps
    Minimum frame rate                       : 0.002 fps
    Maximum frame rate                       : 0.012 fps
    Color space                              : YUV
    Chroma subsampling                       : 4:2:0
    Bit depth                                : 8 bits
    Compression mode                         : Lossy
    Bits/(Pixel*Frame)                       : 1.946
    Stream size                              : 1.13 MiB (0%)
    Language                                 : English
    Encoded date                             : UTC 2015-10-04 22:42:18
    Tagged date                              : UTC 2015-10-04 22:42:19
    Audio #1
    ID                                       : 2
    Format                                   : AAC
    Format/Info                              : Advanced Audio Codec
    Format profile                           : LC
    Codec ID                                 : 40
    Duration                                 : 1h 39mn
    Bit rate mode                            : Variable
    Bit rate                                 : 157 Kbps
    Maximum bit rate                         : 267 Kbps
    Channel(s)                               : 2 channels
    Channel positions                        : Front: L R
    Sampling rate                            : 48.0 KHz
    Compression mode                         : Lossy
    Stream size                              : 111 MiB (3%)
    Language                                 : Russian
    Encoded date                             : UTC 2015-10-04 22:41:56
    Tagged date                              : UTC 2015-10-04 22:42:10
    Audio #2
    ID                                       : 3
    Format                                   : AAC
    Format/Info                              : Advanced Audio Codec
    Format profile                           : LC
    Codec ID                                 : 40
    Duration                                 : 1h 39mn
    Bit rate mode                            : Variable
    Bit rate                                 : 157 Kbps
    Maximum bit rate                         : 289 Kbps
    Channel(s)                               : 2 channels
    Channel positions                        : Front: L R
    Sampling rate                            : 48.0 KHz
    Compression mode                         : Lossy
    Stream size                              : 111 MiB (3%)
    Language                                 : English
    Encoded date                             : UTC 2015-10-04 22:41:56
    Tagged date                              : UTC 2015-10-04 22:42:06
    Audio #3
    ID                                       : 4
    Format                                   : AC-3
    Format/Info                              : Audio Coding 3
    Mode extension                           : CM (complete main)
    Format settings, Endianness              : Big
    Codec ID                                 : ac-3
    Duration                                 : 1h 39mn
    Bit rate mode                            : Constant
    Bit rate                                 : 384 Kbps
    Channel(s)                               : 6 channels
    Channel positions                        : Front: L C R, Side: L R, LFE
    Sampling rate                            : 48.0 KHz
    Bit depth                                : 16 bits
    Compression mode                         : Lossy
    Stream size                              : 273 MiB (8%)
    Language                                 : Russian
    Encoded date                             : UTC 2015-10-04 22:41:56
    Tagged date                              : UTC 2015-10-04 22:42:01
    Text #1
    ID                                       : 5
    Format                                   : Timed text
    Muxing mode                              : sbtl
    Codec ID                                 : tx3g
    Duration                                 : 1h 39mn
    Bit rate mode                            : Variable
    Bit rate                                 : 23 bps
    Stream size                              : 16.6 KiB (0%)
    Language                                 : Russian
    Encoded date                             : UTC 2015-10-04 22:41:56
    Tagged date                              : UTC 2015-10-04 22:41:56
    Text #2
    ID                                       : 6
    Format                                   : Timed text
    Muxing mode                              : sbtl
    Codec ID                                 : tx3g
    Duration                                 : 1h 39mn
    Bit rate mode                            : Variable
    Bit rate                                 : 95 bps
    Stream size                              : 68.9 KiB (0%)
    Language                                 : Russian
    Encoded date                             : UTC 2015-10-04 22:41:56
    Tagged date                              : UTC 2015-10-04 22:41:56
    Text #3
    ID                                       : 7
    Format                                   : Timed text
    Muxing mode                              : sbtl
    Codec ID                                 : tx3g
    Duration                                 : 1h 39mn
    Bit rate mode                            : Variable
    Bit rate                                 : 59 bps
    Stream size                              : 42.6 KiB (0%)
    Language                                 : English
    Encoded date                             : UTC 2015-10-04 22:41:56
    Tagged date                              : UTC 2015-10-04 22:41:56
    Text #4
    ID                                       : 8
    Format                                   : Apple text
    Codec ID                                 : text
    Duration                                 : 1h 39mn
    Bit rate mode                            : Variable
    Bit rate                                 : 1 bps
    Stream size                              : 439 Bytes (0%)
    Language                                 : English
    Encoded date                             : UTC 2015-10-04 22:42:12
    Tagged date                              : UTC 2015-10-04 22:42:12
    Menu
    00:00:00.000                             : 1
    00:01:21.000                             : 2
    00:02:59.000                             : 3
    00:05:00.000                             : 4
    00:10:06.000                             : 5
    00:12:36.000                             : 6
    00:16:22.000                             : 7
    00:24:13.000                             : 8
    00:29:09.000                             : 9
    00:30:36.000                             : 10
    00:35:27.000                             : 11
    00:38:15.000                             : 12
    00:43:05.000                             : 13
    00:45:10.000                             : 14
    00:47:50.000                             : 15
    00:49:11.000                             : 16
    00:50:35.000                             : 17
    00:53:51.000                             : 18
    00:55:27.000                             : 19
    00:57:30.000                             : 20
    01:03:38.000                             : 21
    01:06:42.000                             : 22
    01:11:16.000                             : 23
    01:15:00.000                             : 24
    01:21:28.000                             : 25
    01:26:12.000                             : 26
    01:28:57.000                             : 27
    01:30:35.000                             : 28

    Скриншоты

    -

    Релиз подготовлен для просмотра на Apple TV, iPad, iPhone, iPod Touch.
    Для просмотра данного релиза на компьютере с ОС Windows рекомендуется использовать VLC media player
    Скачать .torrent

    Скачать торрент-файл бесплатно и на максимальной скорости!

    Как скачивать? · Что такое торрент? · Рейтинг и ограничения

    !ВНИМАНИЕ!
    Сайт не распространяет и не хранит электронные версии произведений, а занимается лишь лишь предоставлением доступа к создаваемому пользователями каталогу ссылок на торрент-файлы, которые содержат только списки хеш-сумм, убедительная просьба с жалобами обращаться напрямую к пользователю. Файлы для обмена на трекере предоставлены пользователями сайта, и администрация не несёт ответственности за их содержание. Просьба не заливать файлы, защищенные авторскими правами, а также файлы нелегального содержания!


    _________________
    [Профиль] [ЛС]
    Показать сообщения:    
    Ответить на тему

    Текущее время: Сегодня, в 18:09

    Часовой пояс: GMT + 2



    Вы не можете начинать темы
    Вы не можете отвечать на сообщения
    Вы не можете редактировать свои сообщения
    Вы не можете удалять свои сообщения
    Вы не можете голосовать в опросах
    Вы не можете прикреплять файлы к сообщениям
    Вы не можете скачивать файлы