BitTorrentTracker PerecTracker.org
BitTorrentTracker PerecTracker.org
    
Регистрация  ·  Вход
 
 · 
Забыли пароль?

  • Миньоны / Minions (Кайл Балда, Пьер Коффан / Pierre Coffin & Kyle Balda ) [2015, США, Мультфильм, комедия, семейный, WEB-DL, HD (720p)] DUB

    Ответить на тему
     
    Автор Сообщение

    Light

    Создавать темы 07-Янв-2016 04:26

           

    [Цитировать]

    Миньоны / Minions
    «Ой, всё»
    -Год выпуска: 2015
    Страна: США
    Жанр: Мультфильм, комедия, семейный
    Продолжительность: 01:30:53
    Перевод: Дублированный (iTunes)
    Оригинальная аудиодорожка: Нет
    Режиссёр: Кайл Балда, Пьер Коффан
    Сценарий: Брайан Линч
    Продюсер: Джанет Хили, Кристофер Меледандри, Бретт Хоффман
    Композитор: Эйтор Перейра
    Художник: Оливье Адам
    Монтаж: Клер Доджсон
    В ролях: Сандра Буллок, Джон Хэмм, Майкл Китон, Эллисон Дженни, Стив Куган, Дженнифер Сондерс, Джеффри Раш, Стив Карелл, Пьер Соффин, Кэти Миксон, Алена Фалалеева, Сергей Смирнов, Игорь Старосельцев, Алёна Ивченко, Алексей Колган
    Бюджет: 74 000 000 $
    Сборы в мире: 229 000 000 $
    Сборы в России: 29 000 000 $
    Мировая премьера: 11 июня 2015
    Премьера (РФ): 9 июля 2015, «UPI»
    Описание: Миньоны живут на планете гораздо дольше нас. У них одна навязчивая идея – служить самой Гадкой личности из имеющихся в наличии. Динозавры, фараоны, Дракула, Наполеон – все они оказались недолговечны. И тогда миньоны рванули в Нью-Йорк. Их ждут деньги, власть, роковая суперзлодейка Скарлет Оверкилл и, конечно же, вкуснейшая “банана”! Во всяком случае, так им кажется.-Качество исходника: WEB-DL 720p (HDClub)
    Качество: WEB-DL
    Тип: HD (720p)
    Контейнер: M4V
    Видео: H.264, 1280x688, 1.85:1, 4 046 Kbps, 23.976 fps
    Аудио 1: Русский/Дублированный (iTunes), AAC / 2.0 / 157 Kbps / 48.0 KHz
    Аудио 2: Русский/Дублированный (iTunes), AC-3 / 5.1 / 384 Kbps / 48.0 KHz
    -

    iTunes Meta Tags

    Sort Name: Миньоны
    XID: Apple:vendor_id:2015-694051
    contentID: 991372004
    Copyright: © 2015 Universal Studios. All Rights Reserved.
    Screenwriters: Брайан Линч
    Producers: Джанет Хили, Кристофер Меледандри, Бретт Хоффман
    Director: Кайл Балда, Пьер Соффин
    Cast: Сандра Буллок, Джон Хэмм, Майкл Китон, Эллисон Дженни, Стив Куган, Дженнифер Сондерс, Джеффри Раш, Стив Карелл, Пьер Соффин, Кэти Миксон, Алена Фалалеева, Сергей Смирнов, Игорь Старосельцев, Алёна Ивченко, Алексей Колган
    Studio: Universal Pictures
    Rating: 133
    Long Description: Миньоны живут на планете гораздо дольше нас. У них одна навязчивая идея - служить самой Гадкой личности из имеющихся в наличии. Динозавры, фараоны, Дракула, Наполеон - все они оказались недолговечны. И тогда миньоны рванули в Нью-Йорк. Их ждут деньги, власть, роковая суперзлодейка Скарлет Оверкилл и, конечно же, вкуснейшая \"банана\"! Во всяком случае, так им кажется.
    Description: Миньоны живут на планете гораздо дольше нас. У них одна навязчивая идея - служить самой Гадкой личности из имеющихся в наличии. Динозавры, фараоны, Дракула, Наполеон - все они оказались недолговечны. И тогда миньоны рванули в Нью-Йорк. Их ждут деньги, власть, роковая суперзлодейка Скарлет Оверкилл и, конечно же, вкуснейшая \"банана\"! Во всяком случае, так им кажется.
    Release Date: 2015-06-17T08:00:00Z
    Genre: Для всей семьи
    Artist: Pierre Coffin & Kyle Balda
    Name: Миньоны

    MediaInfo

    General
    Complete name : /Users/imac/HandBrake/Minions.720p.WEB-DL.m4v
    Format : MPEG-4
    Codec ID : M4V
    File size : 2.92 GiB
    Duration : 1h 30mn
    Overall bit rate mode : Variable
    Overall bit rate : 4 593 Kbps
    Movie name : Миньоны
    Performer : Pierre Coffin & Kyle Balda
    Director : Кайл Балда / Пьер Соффин
    Actor : Сандра Буллок / Джон Хэмм / Майкл Китон / Эллисон Дженни / Стив Куган / Дженнифер Сондерс / Джеффри Раш / Стив Карелл / Пьер Соффин / Кэти Миксон / Алена Фалалеева / Сергей Смирнов / Игорь Старосельцев / Алёна Ивченко / Алексей Колган
    Screenplay by : Брайан Линч
    Producer : Джанет Хили / Кристофер Меледандри / Бретт Хоффман
    Production studio : Universal Pictures
    Genre : Для всей семьи
    ContentType : Short Film
    Description : Миньоны живут на планете гораздо дольше нас. У них одна навязчивая идея - служить самой Гадкой личности из имеющихся в наличии. Динозавры, фараоны, Дракула, Наполеон - все они оказались недолговечны. И тогда миньоны рванули в Нью-Йорк. Их ждут деньги, власть, роковая суперзлодейка Скарлет Оверкилл и, конечно же, вкуснейшая \"банана\"! Во всяком случае, так им кажется.
    Recorded date : UTC 2015-06-17 08:00:00
    Encoded date : UTC 2015-10-08 23:24:08
    Tagged date : UTC 2015-10-08 23:25:17
    Copyright : © 2015 Universal Studios. All Rights Reserved.
    Cover : Yes
    Rating : None
    Title/Sort : Миньоны
    LongDescription : Миньоны живут на планете гораздо дольше нас. У них одна навязчивая идея - служить самой Гадкой личности из имеющихся в наличии. Динозавры, фараоны, Дракула, Наполеон - все они оказались недолговечны. И тогда миньоны рванули в Нью-Йорк. Их ждут деньги, власть, роковая суперзлодейка Скарлет Оверкилл и, конечно же, вкуснейшая \"банана\"! Во всяком случае, так им кажется.
    HDVideo : Yes
    AppleStoreCatalogID : 991372004
    Vendor : Apple:vendor_id:2015-694051
    ContentRating : ru-movie|6+|150|
    Video #1
    ID : 1
    Format : AVC
    Format/Info : Advanced Video Codec
    Format profile : High@L3.1
    Format settings, CABAC : No
    Format settings, ReFrames : 2 frames
    Format settings, GOP : M=2, N=90
    Codec ID : avc1
    Codec ID/Info : Advanced Video Coding
    Duration : 1h 30mn
    Bit rate : 4 046 Kbps
    Width : 1 280 pixels
    Height : 688 pixels
    Display aspect ratio : 1.85:1
    Frame rate mode : Constant
    Frame rate : 23.976 fps
    Color space : YUV
    Chroma subsampling : 4:2:0
    Bit depth : 8 bits
    Scan type : Progressive
    Bits/(Pixel*Frame) : 0.192
    Stream size : 2.57 GiB (88%)
    Title : Main Program
    Language : English
    Encoded date : UTC 2015-10-08 23:24:08
    Tagged date : UTC 2015-10-08 23:24:13
    Color range : Limited
    Color primaries : BT.709
    Transfer characteristics : BT.709
    Matrix coefficients : BT.709
    Video #2
    ID : 5
    Format : JPEG
    Codec ID : jpeg
    Duration : 1h 30mn
    Bit rate mode : Variable
    Bit rate : 1 614 bps
    Width : 640 pixels
    Height : 344 pixels
    Display aspect ratio : 1.85:1
    Frame rate mode : Variable
    Frame rate : 0.004 fps
    Minimum frame rate : 0.002 fps
    Maximum frame rate : 0.008 fps
    Color space : YUV
    Chroma subsampling : 4:2:0
    Bit depth : 8 bits
    Compression mode : Lossy
    Bits/(Pixel*Frame) : 1.833
    Stream size : 985 KiB (0%)
    Title : Chapter Images
    Language : English
    Encoded date : UTC 2015-10-08 23:24:20
    Tagged date : UTC 2015-10-08 23:24:20
    Audio #1
    ID : 2
    Format : AAC
    Format/Info : Advanced Audio Codec
    Format profile : LC
    Codec ID : 40
    Duration : 1h 30mn
    Bit rate mode : Variable
    Bit rate : 157 Kbps
    Maximum bit rate : 247 Kbps
    Channel(s) : 2 channels
    Channel positions : Front: L R
    Sampling rate : 48.0 KHz
    Compression mode : Lossy
    Stream size : 102 MiB (3%)
    Title : Russian Stereo
    Language : Russian
    Encoded date : UTC 2015-10-08 23:24:08
    Tagged date : UTC 2015-10-08 23:24:15
    Audio #2
    ID : 3
    Format : AC-3
    Format/Info : Audio Coding 3
    Mode extension : CM (complete main)
    Format settings, Endianness : Big
    Codec ID : ac-3
    Duration : 1h 30mn
    Bit rate mode : Constant
    Bit rate : 384 Kbps
    Channel(s) : 6 channels
    Channel positions : Front: L C R, Side: L R, LFE
    Sampling rate : 48.0 KHz
    Bit depth : 16 bits
    Compression mode : Lossy
    Stream size : 250 MiB (8%)
    Title : Russian DD 5.1
    Language : Russian
    Encoded date : UTC 2015-10-08 23:24:08
    Tagged date : UTC 2015-10-08 23:24:14
    Menu #1
    00:00:00.000 : 1
    00:05:41.000 : 2
    00:11:34.000 : 3
    00:16:57.000 : 4
    00:22:30.000 : 5
    00:27:00.000 : 6
    00:32:56.000 : 7
    00:37:30.000 : 8
    00:41:00.000 : 9
    00:45:31.000 : 10
    00:49:25.000 : 11
    00:53:45.000 : 12
    00:57:06.000 : 13
    01:01:37.999 : 14
    01:05:56.000 : 15
    01:07:57.000 : 16
    01:11:19.000 : 17
    01:15:34.000 : 18
    01:21:14.000 : 19
    01:28:26.000 : 20
    Menu #2
    ID : 4
    Codec ID : text
    Duration : 1h 30mn
    Language : English
    Encoded date : UTC 2015-10-08 23:24:15
    Tagged date : UTC 2015-10-08 23:24:15
    00:00:00.000 : 1
    00:05:41.000 : 2
    00:11:34.000 : 3
    00:16:57.000 : 4
    00:22:30.000 : 5
    00:27:00.000 : 6
    00:32:56.000 : 7
    00:37:30.000 : 8
    00:41:00.000 : 9
    00:45:31.000 : 10
    00:49:25.000 : 11
    00:53:45.000 : 12
    00:57:06.000 : 13
    01:01:37.999 : 14
    01:05:56.000 : 15
    01:07:57.000 : 16
    01:11:19.000 : 17
    01:15:34.000 : 18
    01:21:14.000 : 19
    01:28:26.000 : 20
    Bit rate mode : VBR

    Скриншоты

    -

    Релиз подготовлен для просмотра на Apple TV, iPad, iPhone, iPod Touch.
    Для просмотра данного релиза на компьютере с ОС Windows рекомендуется использовать VLC media player
    Скачать .torrent

    Скачать торрент-файл бесплатно и на максимальной скорости!

    Как скачивать? · Что такое торрент? · Рейтинг и ограничения

    !ВНИМАНИЕ!
    Сайт не распространяет и не хранит электронные версии произведений, а занимается лишь лишь предоставлением доступа к создаваемому пользователями каталогу ссылок на торрент-файлы, которые содержат только списки хеш-сумм, убедительная просьба с жалобами обращаться напрямую к пользователю. Файлы для обмена на трекере предоставлены пользователями сайта, и администрация не несёт ответственности за их содержание. Просьба не заливать файлы, защищенные авторскими правами, а также файлы нелегального содержания!


    _________________
    [Профиль] [ЛС]
    Показать сообщения:    
    Ответить на тему

    Текущее время: Сегодня, в 19:58

    Часовой пояс: GMT + 2



    Вы не можете начинать темы
    Вы не можете отвечать на сообщения
    Вы не можете редактировать свои сообщения
    Вы не можете удалять свои сообщения
    Вы не можете голосовать в опросах
    Вы не можете прикреплять файлы к сообщениям
    Вы не можете скачивать файлы