BitTorrentTracker PerecTracker.org
BitTorrentTracker PerecTracker.org
    
Регистрация  ·  Вход
 
 · 
Забыли пароль?

  • Приключения Пикси / Pixies (Шон Патрик О’Рейли / Sean Patrick O\'Reilly ) [2015, Канада, Мультфильм, комедия, WEB-DL, HD (720p)] DUB + Original

    Ответить на тему
     
    Автор Сообщение

    Light

    Создавать темы 07-Янв-2016 04:26

           

    [Цитировать]

    Приключения Пикси / Pixies
    «Их проделки сводят с ума!»
    6.40 / 10
    -Год выпуска: 2015
    Страна: Канада
    Жанр: Мультфильм, комедия
    Продолжительность: 1:17:29
    Перевод: Дублированный (iTunes)
    Оригинальная аудиодорожка: Есть
    Cубтитры: Нет
    Режиссёр: Шон Патрик О’Рейли
    Сценарий: Шон Патрик О’Рейли
    Продюсер: Мишель О’Рейли, Шон Патрик О’Рейли
    Художник: Тодд Демонг
    Монтаж: Брендан Хэнселл
    В ролях: Алекса ПенаВега, Карлос ПенаВега, Билл Пэкстон, Кристофер Пламмер, Джофф Густафссон, Элисон Вандзура, Дэвид Милчард, Кифер О’Рейли, Шон Патрик О’Рейли, Эрик Поллинс
    Сборы в России: $81 124
    Мировая премьера: 5 июня 2015
    Премьера (РФ): 29 октября 2015, «Парадиз»
    Описание: Смешные шалости и хулиганские проказы пиксиков, волшебных эльфов, которые обычно живут глубоко под землей, перевернули жизнь обычного парня Джо Бека вверх дном.-Качество исходника: WEB-DL 720p
    Качество: WEB-DL
    Тип: HD (720p)
    Контейнер: M4V
    Видео: H.264, 1280x720, 16:9, 3 988 Kbps, 24.000 fps
    Аудио 1: Русский/Дублированный (iTunes), AAC / 2.0 / 157 Kbps / 48.0 KHz
    Аудио 2: Английский/Оригинальная дорожка , AAC / 2.0 / 156 Kbps / 48.0 KHz
    Аудио 3: Русский/Дублированный (iTunes), AC-3 / 5.1 / 384 Kbps / 48.0 KHz
    -

    iTunes Meta Tags

    Sort Name: Приключения Пикси
    XID: Apple:vendor_id:2015-581348
    contentID: 1053125143
    Copyright: © 2015 Paradise
    Screenwriters: Шон Патрик О’Рейли
    Producers: Мишель О’Рейли, Шон Патрик О’Рейли
    Director: Шон Патрик О’Рейли
    Cast: Алекса ПенаВега, Карлос ПенаВега, Билл Пэкстон, Кристофер Пламмер, Джофф Густафссон, Элисон Вандзура, Дэвид Милчард, Кифер О’Рейли, Шон Патрик О’Рейли, Эрик Поллинс, Татьяна Шитова, Олег Вирозуб, Денис Беспалый, Владимир Левашёв, Александр Гаврилин
    Rating: 132
    Long Description: Смешные шалости и хулиганские проказы пиксиков, волшебных эльфов, которые обычно живут глубоко под землей, перевернули жизнь обычного парня Джо Бека вверх дном.
    Description: Смешные шалости и хулиганские проказы пиксиков, волшебных эльфов, которые обычно живут глубоко под землей, перевернули жизнь обычного парня Джо Бека вверх дном.
    Release Date: 2015-06-05T08:00:00Z
    Genre: Комедии
    Artist: Шон Патрик О’Рейли
    Name: Приключения Пикси

    MediaInfo

    General
    Complete name : /Users/imac/HandBrake/Pixies.720p.WEB-DL.m4v
    Format : MPEG-4
    Codec ID : M4V
    File size : 2.54 GiB
    Duration : 1h 17mn
    Overall bit rate mode : Variable
    Overall bit rate : 4 696 Kbps
    Movie name : Приключения Пикси
    Performer : Шон Патрик О’Рейли
    Director : Шон Патрик О’Рейли
    Actor : Алекса ПенаВега / Карлос ПенаВега / Билл Пэкстон / Кристофер Пламмер / Джофф Густафссон / Элисон Вандзура / Дэвид Милчард / Кифер О’Рейли / Шон Патрик О’Рейли / Эрик Поллинс / Татьяна Шитова / Олег Вирозуб / Денис Беспалый / Владимир Левашёв / Александр Гаврилин
    Screenplay by : Шон Патрик О’Рейли
    Producer : Мишель О’Рейли / Шон Патрик О’Рейли
    Genre : Комедии
    ContentType : Short Film
    Description : Смешные шалости и хулиганские проказы пиксиков, волшебных эльфов, которые обычно живут глубоко под землей, перевернули жизнь обычного парня Джо Бека вверх дном.
    Recorded date : UTC 2015-06-05 08:00:00
    Encoded date : UTC 2015-11-29 08:46:55
    Tagged date : UTC 2015-11-29 08:49:33
    Copyright : © 2015 Paradise
    Cover : Yes
    Rating : None
    Title/Sort : Приключения Пикси
    LongDescription : Смешные шалости и хулиганские проказы пиксиков, волшебных эльфов, которые обычно живут глубоко под землей, перевернули жизнь обычного парня Джо Бека вверх дном.
    HDVideo : Yes
    AppleStoreCatalogID : 1053125143
    Vendor : Apple:vendor_id:2015-581348
    ContentRating : ru-movie|0+|000|
    Video #1
    ID : 1
    Format : AVC
    Format/Info : Advanced Video Codec
    Format profile : High@L3.1
    Format settings, CABAC : No
    Format settings, ReFrames : 2 frames
    Format settings, GOP : M=2, N=90
    Codec ID : avc1
    Codec ID/Info : Advanced Video Coding
    Duration : 1h 17mn
    Bit rate : 3 988 Kbps
    Width : 1 280 pixels
    Height : 720 pixels
    Display aspect ratio : 16:9
    Frame rate mode : Variable
    Frame rate : 24.000 fps
    Minimum frame rate : 23.810 fps
    Maximum frame rate : 24.390 fps
    Color space : YUV
    Chroma subsampling : 4:2:0
    Bit depth : 8 bits
    Scan type : Progressive
    Bits/(Pixel*Frame) : 0.180
    Stream size : 2.16 GiB (85%)
    Title : Main Program
    Language : English
    Encoded date : UTC 2015-11-29 08:46:55
    Tagged date : UTC 2015-11-29 08:47:34
    Color range : Limited
    Color primaries : BT.709
    Transfer characteristics : BT.709
    Matrix coefficients : BT.709
    Video #2
    ID : 6
    Format : JPEG
    Codec ID : jpeg
    Duration : 1h 17mn
    Bit rate mode : Variable
    Bit rate : 847 bps
    Width : 640 pixels
    Height : 360 pixels
    Display aspect ratio : 16:9
    Frame rate mode : Constant
    Frame rate : 0.002 fps
    Color space : YUV
    Chroma subsampling : 4:2:0
    Bit depth : 8 bits
    Compression mode : Lossy
    Bits/(Pixel*Frame) : 1.838
    Stream size : 569 KiB (0%)
    Title : Chapter Images
    Language : English
    Encoded date : UTC 2015-11-29 08:47:36
    Tagged date : UTC 2015-11-29 08:47:37
    Audio #1
    ID : 2
    Format : AAC
    Format/Info : Advanced Audio Codec
    Format profile : LC
    Codec ID : 40
    Duration : 1h 17mn
    Bit rate mode : Variable
    Bit rate : 157 Kbps
    Maximum bit rate : 268 Kbps
    Channel(s) : 2 channels
    Channel positions : Front: L R
    Sampling rate : 48.0 KHz
    Compression mode : Lossy
    Stream size : 87.1 MiB (3%)
    Title : Russian Stereo
    Language : Russian
    Encoded date : UTC 2015-11-29 08:46:55
    Tagged date : UTC 2015-11-29 08:46:59
    Audio #2
    ID : 3
    Format : AAC
    Format/Info : Advanced Audio Codec
    Format profile : LC
    Codec ID : 40
    Duration : 1h 17mn
    Bit rate mode : Variable
    Bit rate : 156 Kbps
    Maximum bit rate : 231 Kbps
    Channel(s) : 2 channels
    Channel positions : Front: L R
    Sampling rate : 48.0 KHz
    Compression mode : Lossy
    Stream size : 86.7 MiB (3%)
    Title : English Stereo
    Language : English
    Encoded date : UTC 2015-11-29 08:46:55
    Tagged date : UTC 2015-11-29 08:46:59
    Audio #3
    ID : 4
    Format : AC-3
    Format/Info : Audio Coding 3
    Mode extension : CM (complete main)
    Format settings, Endianness : Big
    Codec ID : ac-3
    Duration : 1h 17mn
    Bit rate mode : Constant
    Bit rate : 384 Kbps
    Channel(s) : 6 channels
    Channel positions : Front: L C R, Side: L R, LFE
    Sampling rate : 48.0 KHz
    Bit depth : 16 bits
    Compression mode : Lossy
    Stream size : 213 MiB (8%)
    Title : Russian DD 5.1
    Language : Russian
    Encoded date : UTC 2015-11-29 08:46:55
    Tagged date : UTC 2015-11-29 08:46:58
    Menu #1
    00:00:00.000 : 1
    00:06:04.000 : 2
    00:13:36.000 : 3
    00:21:32.000 : 4
    00:29:20.000 : 5
    00:35:21.000 : 6
    00:42:01.000 : 7
    00:50:22.000 : 8
    00:57:54.000 : 9
    01:03:50.000 : 10
    01:09:39.000 : 11
    Menu #2
    ID : 5
    Codec ID : text
    Duration : 1h 17mn
    Language : English
    Encoded date : UTC 2015-11-29 08:47:34
    Tagged date : UTC 2015-11-29 08:47:34
    00:00:00.000 : 1
    00:06:04.000 : 2
    00:13:36.000 : 3
    00:21:32.000 : 4
    00:29:20.000 : 5
    00:35:21.000 : 6
    00:42:01.000 : 7
    00:50:22.000 : 8
    00:57:54.000 : 9
    01:03:50.000 : 10
    01:09:39.000 : 11
    Bit rate mode : VBR

    Скриншоты

    -

    Релиз подготовлен для просмотра на Apple TV, iPad, iPhone, iPod Touch.
    Для просмотра данного релиза на компьютере с ОС Windows рекомендуется использовать VLC media player
    Скачать .torrent

    Скачать торрент-файл бесплатно и на максимальной скорости!

    Как скачивать? · Что такое торрент? · Рейтинг и ограничения

    !ВНИМАНИЕ!
    Сайт не распространяет и не хранит электронные версии произведений, а занимается лишь лишь предоставлением доступа к создаваемому пользователями каталогу ссылок на торрент-файлы, которые содержат только списки хеш-сумм, убедительная просьба с жалобами обращаться напрямую к пользователю. Файлы для обмена на трекере предоставлены пользователями сайта, и администрация не несёт ответственности за их содержание. Просьба не заливать файлы, защищенные авторскими правами, а также файлы нелегального содержания!


    _________________
    [Профиль] [ЛС]
    Показать сообщения:    
    Ответить на тему

    Текущее время: Сегодня, в 05:10

    Часовой пояс: GMT + 2



    Вы не можете начинать темы
    Вы не можете отвечать на сообщения
    Вы не можете редактировать свои сообщения
    Вы не можете удалять свои сообщения
    Вы не можете голосовать в опросах
    Вы не можете прикреплять файлы к сообщениям
    Вы не можете скачивать файлы