BitTorrentTracker PerecTracker.org
BitTorrentTracker PerecTracker.org
    
Регистрация  ·  Вход
 
 · 
Забыли пароль?

  • [ATV3] Титан: После гибели Земли / Titan A.E. (Дон Блут, Гари Голдман, Арт Вителло) [2000, США, мультфильм, фантастика, боевик, приключения, WEB-DL HD (1080p)] DUB, MVO, AVO, Original + SUB (rus, eng)

    Ответить на тему
     
    Автор Сообщение

    Light

    Создавать темы 07-Янв-2016 04:26

           

    [Цитировать]

    Титан: После гибели Земли / Titan A.E.
    "Готов ли ты спасти человечество?"
    7.496 / 10
    -Год выпуска: 2000
    Страна: США
    Жанр: мультфильм, фантастика, боевик, приключения
    Продолжительность: 94 мин.
    Перевод: Профессиональный дублированный перевод, многоголосый закадровый перевод и одноголосый закадровый авторский перевод
    Оригинальная аудиодорожка: Есть
    Cубтитры: Русские форсированные, русские полные и английские полные
    Режиссёр: Дон Блут, Гари Голдман, Арт Вителло
    Сценарий: Бен Эдлунд, Джон Огаст, Джосс Уидон
    Продюсер: Дон Блут, Гари Голдман, Дэвид Киршнер
    Композитор: Грэм Ревелл, Тим Саймонек
    Художник: Филип А. Круден, Кеннет Валентайн Слевин, Ким Баррет
    Монтаж: Боб Бендер, Пол Мартин Смит, Фиона Трэйлер
    В ролях: Мэтт Дэймон, Билл Пуллман, Джон Легуизамо, Нэйтан Лейн, Джанин Гарофало, Дрю Бэрримор, Рон Перлман, Алекс Д. Линц, Тоун Лок, Джим Брюэр
    Роли дублировали: Сергей Быстрицкий, Александр Клюквин, Дмитрий Филимонов, Никита Прозоровский, Элеонора Прохницкая
    Бюджет: $75 000 000
    Сборы в США: $22 753 426
    Сборы в мире: + $14 001 208 = $36 754 634
    Мировая премьера: 13 июня 2000
    Премьера (РФ): 24 августа 2000, Гемини
    Релиз на DVD: 26 января 2010, Флагман-Трейд
    Описание: В 3028 году Дреджи - агрессивная инопланетная раса уничтожила Землю. Пятнадцать лет спустя - юный Кейл узнает, что он владеет генетически запрограммированной картой на Титан - космический супер-корабль, в котором заключен секрет спасения человечества.
    Кейлу предстоит полное опасностей путешествие через вселенную в составе команды космического корабля "Валькирия", сражения со злыми Дреджами, и восстановление Титана - последней надежды всего человечества.-Качество исходника: WEB-DL 1080p (HDClub)
    Качество: WEB-DL
    Тип: 1080p
    Контейнер: m4v
    Видео: 1920x1080 at 23.976 fps, MPEG-4 AVC, ~10000 kbps avg (Amazon Prime UK) - видео с черными полосами
    Аудио#1: Russian: 48 kHz, ААС, 2/0 (L,R), ~160.00 kbps avg |Дубляж, R5|
    Аудио#2: Russian: 48 kHz, ААС, 2/0 (L,R), ~160.00 kbps avg |Многоголосый закадровый, ver. 1|
    Аудио#3: Russian: 48 kHz, ААС, 2/0 (L,R), ~160.00 kbps avg |Многоголосый закадровый, ver. 2|
    Аудио#4: Russian: 48 kHz, ААС, 2/0 (L,R), ~160.00 kbps avg |Одноголосый закадровый, Ю. Живов|
    Аудио#5: English: 48 kHz, ААС, 2/0 (L,R), ~160.00 kbps avg
    Аудио#6: Russian: 48 kHz, AC3, 3/2 (L,C,R,l,r) + LFE ch, ~448.00 kbps avg |Дубляж, R5|
    Аудио#7: Russian: 48 kHz, AC3, 3/2 (L,C,R,l,r) + LFE ch, ~384.00 kbps avg |Многоголосый закадровый, ver. 1|
    Аудио#8: Russian: 48 kHz, AC3, 3/2 (L,C,R,l,r) + LFE ch, ~384.00 kbps avg |Многоголосый закадровый, ver. 2|
    Аудио#9: Russian: 48 kHz, AC3, 3/2 (L,C,R,l,r) + LFE ch, ~384.00 kbps avg |Одноголосый закадровый, Ю. Живов|
    Аудио#10: English: 48 kHz, AC3, 3/2 (L,C,R,l,r) + LFE ch, ~448.00 kbps avg
    Субтитры №1: Russian: |Форсированные|
    Субтитры №2: Russian: |Полные|
    Субтитры №3: English: |Полные|-

    Знаете ли Вы, что...

    • Этот фильм потерпел финансовый провал, в результате чего студия из Феникса (штат Аризона) «Fox Animation», возглавляемой Доном Блутом (Don Bluth) и Гэри Голдманом (Gary Goldman), была закрыта.
    • Планировался также выпуск компьютерной одноименной игры для «Playstation», но затем этот проект был остановлен.
    • Для предварительного просмотра в Атланте 6 июня 2000 года фильм был передан в цифровом формате от голливудской студии за 3 000 миль к цифровому проектору в кинотеатре торгового центра «SuperComm» через Интернет. Все прошло очень удачно, так что эта картина стала первым полнометражным фильмом, который был показан публично именно таким образом.
    • Рабочее название фильма — «Планета льда» (Planet Ice).

    -

    iTunes Meta Tags for country us

    Name: Titan A.E.
    Artist: Don Bluth, Gary Goldman & Art Vitello
    Genre: Action & Adventure
    Release Date: 2000-06-13T08:00:00Z
    Description: В 3028 году Дреджи - агрессивная инопланетная раса уничтожила Землю. Пятнадцать лет спустя - юный Кейл узнает, что он владеет генетически запрограммированной картой на Титан - космический супер-корабль, в котором заключен секрет спасения человечества...
    Long Description: В 3028 году Дреджи - агрессивная инопланетная раса уничтожила Землю. Пятнадцать лет спустя - юный Кейл узнает, что он владеет генетически запрограммированной картой на Титан - космический супер-корабль, в котором заключен секрет спасения человечества.
    Кейлу предстоит полное опасностей путешествие через вселенную в составе команды космического корабля "Валькирия", сражения со злыми Дреджами, и восстановление Титана - последней надежды всего человечества.
    Rating: PG
    Rating Annotation: Rated PG for action violence, mild sensuality and brief language.
    Studio: 20th Century Fox
    Cast: Мэтт Дэймон, Билл Пуллман, Джон Легуизамо, Нэйтан Лейн, Джанин Гарофало, Дрю Бэрримор, Рон Перлман, Алекс Д. Линц, Тоун Лок, Джим Брюэр
    Director: Дон Блут, Гари Голдман, Арт Вителло
    Producers: Дон Блут, Гари Голдман, Дэвид Киршнер
    Screenwriters: Бен Эдлунд, Джон Огаст, Джосс Уидон
    Copyright: © 2000 Twentieth Century Fox Film Corporation.
    contentID: 270551266
    XID: Apple:vendor_id:2000-862
    Sort Name: Titan A.E.

    MediaInfo 1080p Release

    General
    Complete name : Titan A.E. (1080p HD).m4v
    Format : MPEG-4
    Codec ID : M4V
    File size : 8.53 GiB
    Duration : 1h 34mn
    Overall bit rate mode : Variable
    Overall bit rate : 12.9 Mbps
    Movie name : Titan A.E.
    Performer : Don Bluth, Gary Goldman & Art Vitello
    Director : Дон Блут / Гари Голдман / Арт Вителло
    Actor : Мэтт Дэймон / Билл Пуллман / Джон Легуизамо / Нэйтан Лейн / Джанин Гарофало / Дрю Бэрримор / Рон Перлман / Алекс Д. Линц / Тоун Лок / Джим Брюэр
    Screenplay by : Бен Эдлунд / Джон Огаст / Джосс Уидон
    Producer : Дон Блут / Гари Голдман / Дэвид Киршнер
    Production studio : 20th Century Fox
    Genre : Action & Adventure
    ContentType : Short Film
    Description : В 3028 году Дреджи - агрессивная инопланетная раса уничтожила Землю. Пятнадцать лет спустя - юный Кейл узнает, что он владеет генетически запрограммированной картой на Титан - космический супер-корабль, в котором заключен секрет спасения человечества...
    Recorded date : UTC 2000-06-13 08:00:00
    Encoded date : UTC 2015-11-27 12:07:15
    Tagged date : UTC 2015-11-27 12:27:20
    Copyright : © 2000 Twentieth Century Fox Film Corporation.
    Cover : Yes
    Rating : None
    Title/Sort : Titan A.E.
    LongDescription : В 3028 году Дреджи - агрессивная инопланетная раса уничтожила Землю. Пятнадцать лет спустя - юный Кейл узнает, что он владеет генетически запрограммированной картой на Титан - космический супер-корабль, в котором заключен секрет спасения человечества. / Кейлу предстоит полное опасностей путешествие через вселенную в составе команды космического корабля "Валькирия", сражения со злыми Дреджами, и восстановление Титана - последней надежды всего человечества.
    AppleStoreCatalogID : 270551266
    Vendor : Apple:vendor_id:2000-862
    ContentRating : mpaa|PG|200|Rated PG for action violence, mild sensuality and brief language.
    Video #1
    ID : 1
    Format : AVC
    Format/Info : Advanced Video Codec
    Format profile : High@L4
    Format settings, CABAC : Yes
    Format settings, ReFrames : 4 frames
    Codec ID : avc1
    Codec ID/Info : Advanced Video Coding
    Duration : 1h 34mn
    Bit rate mode : Constant
    Bit rate : 10 000 Kbps
    Width : 1 920 pixels
    Height : 1 080 pixels
    Display aspect ratio : 16:9
    Frame rate mode : Variable
    Frame rate : 23.976 fps
    Minimum frame rate : 23.810 fps
    Maximum frame rate : 24.390 fps
    Color space : YUV
    Chroma subsampling : 4:2:0
    Bit depth : 8 bits
    Scan type : Progressive
    Bits/(Pixel*Frame) : 0.201
    Stream size : 6.62 GiB (78%)
    Title : Main Program
    Language : English
    Encoded date : UTC 2015-11-27 12:07:15
    Tagged date : UTC 2015-11-27 12:25:31
    Color range : Limited
    Color primaries : BT.709
    Transfer characteristics : BT.709
    Matrix coefficients : BT.709
    Video #2
    ID : 16
    Format : JPEG
    Codec ID : jpeg
    Duration : 1h 34mn
    Bit rate mode : Variable
    Bit rate : 1 268 bps
    Width : 640 pixels
    Height : 360 pixels
    Display aspect ratio : 16:9
    Frame rate mode : Variable
    Frame rate : 0.004 fps
    Minimum frame rate : 0.002 fps
    Maximum frame rate : 0.014 fps
    Color space : YUV
    Chroma subsampling : 4:2:0
    Bit depth : 8 bits
    Compression mode : Lossy
    Bits/(Pixel*Frame) : 1.376
    Stream size : 774 KiB (0%)
    Title : Chapter Images
    Language : English
    Encoded date : UTC 2015-11-27 12:25:39
    Tagged date : UTC 2015-11-27 12:25:39
    Audio #1
    ID : 2
    Format : AAC
    Format/Info : Advanced Audio Codec
    Format profile : LC
    Codec ID : 40
    Duration : 1h 34mn
    Bit rate mode : Variable
    Bit rate : 166 Kbps
    Maximum bit rate : 226 Kbps
    Channel(s) : 2 channels
    Channel positions : Front: L R
    Sampling rate : 48.0 KHz
    Compression mode : Lossy
    Stream size : 113 MiB (1%)
    Title : Russian DUB R5 Stereo
    Language : Russian
    Encoded date : UTC 2015-11-27 12:07:15
    Tagged date : UTC 2015-11-27 12:07:35
    Audio #2
    ID : 3
    Format : AAC
    Format/Info : Advanced Audio Codec
    Format profile : LC
    Codec ID : 40
    Duration : 1h 34mn
    Bit rate mode : Variable
    Bit rate : 165 Kbps
    Maximum bit rate : 237 Kbps
    Channel(s) : 2 channels
    Channel positions : Front: L R
    Sampling rate : 48.0 KHz
    Compression mode : Lossy
    Stream size : 112 MiB (1%)
    Title : Russian MVO v.1 Sereo
    Language : Russian
    Encoded date : UTC 2015-11-27 12:07:15
    Tagged date : UTC 2015-11-27 12:07:35
    Audio #3
    ID : 4
    Format : AAC
    Format/Info : Advanced Audio Codec
    Format profile : LC
    Codec ID : 40
    Duration : 1h 32mn
    Bit rate mode : Variable
    Bit rate : 164 Kbps
    Maximum bit rate : 251 Kbps
    Channel(s) : 2 channels
    Channel positions : Front: L R
    Sampling rate : 48.0 KHz
    Compression mode : Lossy
    Stream size : 108 MiB (1%)
    Title : Russian MVO v.2 Sereo
    Language : Russian
    Encoded date : UTC 2015-11-27 12:07:15
    Tagged date : UTC 2015-11-27 12:07:35
    Audio #4
    ID : 5
    Format : AAC
    Format/Info : Advanced Audio Codec
    Format profile : LC
    Codec ID : 40
    Duration : 1h 34mn
    Bit rate mode : Variable
    Bit rate : 164 Kbps
    Maximum bit rate : 246 Kbps
    Channel(s) : 2 channels
    Channel positions : Front: L R
    Sampling rate : 48.0 KHz
    Compression mode : Lossy
    Stream size : 111 MiB (1%)
    Title : Russian AVO U.Zhivov Stereo
    Language : Russian
    Encoded date : UTC 2015-11-27 12:07:15
    Tagged date : UTC 2015-11-27 12:07:35
    Audio #5
    ID : 6
    Format : AAC
    Format/Info : Advanced Audio Codec
    Format profile : LC
    Codec ID : 40
    Duration : 1h 34mn
    Bit rate mode : Variable
    Bit rate : 165 Kbps
    Maximum bit rate : 263 Kbps
    Channel(s) : 2 channels
    Channel positions : Front: L R
    Sampling rate : 48.0 KHz
    Compression mode : Lossy
    Stream size : 112 MiB (1%)
    Title : English Stereo
    Language : English
    Encoded date : UTC 2015-11-27 12:07:15
    Tagged date : UTC 2015-11-27 12:07:35
    Audio #6
    ID : 7
    Format : AC-3
    Format/Info : Audio Coding 3
    Mode extension : CM (complete main)
    Format settings, Endianness : Big
    Codec ID : ac-3
    Duration : 1h 34mn
    Bit rate mode : Constant
    Bit rate : 448 Kbps
    Channel(s) : 6 channels
    Channel positions : Front: L C R, Side: L R, LFE
    Sampling rate : 48.0 KHz
    Bit depth : 16 bits
    Compression mode : Lossy
    Stream size : 304 MiB (3%)
    Title : Russian DUB R5 DD 5.1
    Language : Russian
    Encoded date : UTC 2015-11-27 12:07:15
    Tagged date : UTC 2015-11-27 12:25:31
    Audio #7
    ID : 8
    Format : AC-3
    Format/Info : Audio Coding 3
    Mode extension : CM (complete main)
    Format settings, Endianness : Big
    Codec ID : ac-3
    Duration : 1h 34mn
    Bit rate mode : Constant
    Bit rate : 384 Kbps
    Channel(s) : 6 channels
    Channel positions : Front: L C R, Side: L R, LFE
    Sampling rate : 48.0 KHz
    Bit depth : 16 bits
    Compression mode : Lossy
    Stream size : 261 MiB (3%)
    Title : Russian MVO v.1 DD 5.1
    Language : Russian
    Encoded date : UTC 2015-11-27 12:07:15
    Tagged date : UTC 2015-11-27 12:25:31
    Audio #8
    ID : 9
    Format : AC-3
    Format/Info : Audio Coding 3
    Mode extension : CM (complete main)
    Format settings, Endianness : Big
    Codec ID : ac-3
    Duration : 1h 32mn
    Bit rate mode : Constant
    Bit rate : 384 Kbps
    Channel(s) : 6 channels
    Channel positions : Front: L C R, Side: L R, LFE
    Sampling rate : 48.0 KHz
    Bit depth : 16 bits
    Compression mode : Lossy
    Stream size : 253 MiB (3%)
    Title : Russian MVO v.2 DD 5.1
    Language : Russian
    Encoded date : UTC 2015-11-27 12:07:15
    Tagged date : UTC 2015-11-27 12:25:31
    Audio #9
    ID : 10
    Format : AC-3
    Format/Info : Audio Coding 3
    Mode extension : CM (complete main)
    Format settings, Endianness : Big
    Codec ID : ac-3
    Duration : 1h 34mn
    Bit rate mode : Constant
    Bit rate : 384 Kbps
    Channel(s) : 6 channels
    Channel positions : Front: L C R, Side: L R, LFE
    Sampling rate : 48.0 KHz
    Bit depth : 16 bits
    Compression mode : Lossy
    Stream size : 261 MiB (3%)
    Title : Russian AVO U.Zhivov DD 5.1
    Language : Russian
    Encoded date : UTC 2015-11-27 12:07:15
    Tagged date : UTC 2015-11-27 12:25:31
    Audio #10
    ID : 11
    Format : AC-3
    Format/Info : Audio Coding 3
    Mode extension : CM (complete main)
    Format settings, Endianness : Big
    Codec ID : ac-3
    Duration : 1h 34mn
    Bit rate mode : Constant
    Bit rate : 448 Kbps
    Channel(s) : 6 channels
    Channel positions : Front: L C R, Side: L R, LFE
    Sampling rate : 48.0 KHz
    Bit depth : 16 bits
    Compression mode : Lossy
    Stream size : 304 MiB (3%)
    Title : English DD 5.1
    Language : English
    Encoded date : UTC 2015-11-27 12:07:15
    Tagged date : UTC 2015-11-27 12:25:31
    Text #1
    ID : 12
    Format : Timed Text
    Muxing mode : sbtl
    Codec ID : tx3g
    Duration : 1h 26mn
    Bit rate mode : Variable
    Bit rate : 2 bps
    Stream size : 992 Bytes (0%)
    Title : Russian Forced Subtitle
    Language : Russian
    Encoded date : UTC 2015-11-27 12:07:15
    Tagged date : UTC 2015-11-27 12:07:15
    Text #2
    ID : 13
    Format : Timed Text
    Muxing mode : sbtl
    Codec ID : tx3g
    Duration : 1h 25mn
    Bit rate mode : Variable
    Bit rate : 76 bps
    Stream size : 47.5 KiB (0%)
    Title : Russian Subtitle
    Language : Russian
    Encoded date : UTC 2015-11-27 12:07:15
    Tagged date : UTC 2015-11-27 12:07:15
    Text #3
    ID : 14
    Format : Timed Text
    Muxing mode : sbtl
    Codec ID : tx3g
    Duration : 1h 25mn
    Bit rate mode : Variable
    Bit rate : 51 bps
    Stream size : 31.8 KiB (0%)
    Title : English Subtitle
    Language : English
    Encoded date : UTC 2015-11-27 12:07:15
    Tagged date : UTC 2015-11-27 12:07:15
    Menu #1
    00:00:00.000 : Prologue
    00:01:51.744 : The Drej Attack
    00:06:36.744 : 15 Years Later
    00:12:17.744 : A Human Recruiter
    00:14:41.744 : A Father's Legacy
    00:15:55.744 : Being Chased
    00:20:52.744 : Being Healed
    00:24:32.744 : Navigation
    00:26:49.744 : Sesharrim
    00:35:56.744 : Captured
    00:40:37.744 : On A Trade Ship
    00:43:04.744 : Breaking Free
    00:52:09.744 : Unnatural Allies
    00:56:34.744 : On New Bangkok
    00:58:50.743 : A Ship
    01:02:31.744 : In The Ice Ring
    01:11:42.744 : A Message From Dad
    01:15:05.744 : Fight For The Ring
    01:22:11.744 : Building A Planet
    01:26:41.744 : End Titles
    Menu #2
    ID : 15
    Codec ID : text
    Duration : 1h 34mn
    Title : Chapter Titles
    Language : English
    Encoded date : UTC 2015-11-27 12:25:31
    Tagged date : UTC 2015-11-27 12:25:31
    00:00:00.000 : Prologue
    00:01:51.744 : The Drej Attack
    00:06:36.744 : 15 Years Later
    00:12:17.744 : A Human Recruiter
    00:14:41.744 : A Father's Legacy
    00:15:55.744 : Being Chased
    00:20:52.744 : Being Healed
    00:24:32.744 : Navigation
    00:26:49.744 : Sesharrim
    00:35:56.744 : Captured
    00:40:37.744 : On A Trade Ship
    00:43:04.744 : Breaking Free
    00:52:09.744 : Unnatural Allies
    00:56:34.744 : On New Bangkok
    00:58:50.743 : A Ship
    01:02:31.744 : In The Ice Ring
    01:11:42.744 : A Message From Dad
    01:15:05.744 : Fight For The Ring
    01:22:11.744 : Building A Planet
    01:26:41.744 : End Titles
    Bit rate mode : VBR

    Скриншоты 1080p Release

    -

    Релиз подготовлен для просмотра на Apple TV, iPad, iPhone, iPod Touch.
    Для просмотра данного релиза на компьютере с ОС Windows рекомендуется использовать VLC media player
    Скачать .torrent

    Скачать торрент-файл бесплатно и на максимальной скорости!

    Как скачивать? · Что такое торрент? · Рейтинг и ограничения

    !ВНИМАНИЕ!
    Сайт не распространяет и не хранит электронные версии произведений, а занимается лишь лишь предоставлением доступа к создаваемому пользователями каталогу ссылок на торрент-файлы, которые содержат только списки хеш-сумм, убедительная просьба с жалобами обращаться напрямую к пользователю. Файлы для обмена на трекере предоставлены пользователями сайта, и администрация не несёт ответственности за их содержание. Просьба не заливать файлы, защищенные авторскими правами, а также файлы нелегального содержания!


    _________________
    [Профиль] [ЛС]
    Показать сообщения:    
    Ответить на тему

    Текущее время: Сегодня, в 21:25

    Часовой пояс: GMT + 2



    Вы не можете начинать темы
    Вы не можете отвечать на сообщения
    Вы не можете редактировать свои сообщения
    Вы не можете удалять свои сообщения
    Вы не можете голосовать в опросах
    Вы не можете прикреплять файлы к сообщениям
    Вы не можете скачивать файлы