BitTorrentTracker PerecTracker.org
BitTorrentTracker PerecTracker.org
    
Регистрация  ·  Вход
 
 · 
Забыли пароль?

  • Изоляция / Isolation (Билли О`Брайэн / Billy O'Brien) [2005, Великобритания, Ирландия, США, Ужасы, триллер, BDRip-AVC] DVO + Original Eng

    Ответить на тему
     
    Автор Сообщение

    Columb

    Создавать темы 26-Авг-2013 17:45

           

    [Цитировать]

    Изоляция / Isolation
    Страна: Великобритания, Ирландия, США
    Жанр: Ужасы, триллер
    Год выпуска: 2005
    Продолжительность: 01:34:28
    Перевод: Профессиональный (двухголосый закадровый)
    Cубтитры: нет
    Оригинальная аудиодорожка: английский
    Режиссер: Билли О`Брайэн / Billy O'Brien
    В ролях: Эсси Дэвис, Шон Харрис, Марчел Юреш, Криспин Леттс, Джон Линч, Рут Негга, Стэнли Таунсенд
    Описание: Ирландия. Глубинка. Заброшенная ферма Дена Рейли — обрушающиеся здания, полный упадок. Ден еле сводит концы с концами. Он в крайнем состоянии и соглашается принять участие в генетическом эксперименте, разрешает провести тесты на своем рогатом скоте местной лаборатории биотехнологии…Эксперимент дает сбой и пять человек, находящиеся на ферме, становятся невольными участниками и заложниками ситуации, неспособными избежать происходящего. 24 часа изоляции…
    Релиз от:
    Автор рипа: potroks
    | |
    Качество видео: BDRip-AVC [BDRemux]
    Формат видео: MKV
    Видео: х.264, 1024x438 (2,35:1), 23,976 fps, 2415 Кbps, 0.225 bit/pixel
    Аудио: 48 kHz, AC3 Dolby Digital, 3/2 (L,C,R,l,r) ch, 448.00 kbps | RUS
    Аудио 2: 48 kHz, AC3 Dolby Digital, 3/2 (L,C,R,l,r) ch, 448.00 kbps | ENG

    MediaInfo

    Общее
    Уникальный идентификатор : 210271366379345719104782313325518468428 (0x9E30CAC6C8FD4D09B6D8A3925395354C)
    Полное имя : C:\Users\к\Desktop\фильмы\Izoljacyja.2005.DUAL.BDRip.x264.[rutracker.org].mkv
    Формат : Matroska
    Версия формата : Version 2
    Размер файла : 2,19 Гбайт
    Продолжительность : 1 ч. 34 м.
    Общий поток : 3312 Кбит/сек
    Название фильма : HELLYWOOD - rip by potroks
    Дата кодирования : UTC 2013-08-21 18:46:12
    Программа кодирования : mkvmerge v5.9.0 ('On The Loose') built on Dec 15 2012 16:39:58
    Библиотека кодирования : libebml v1.3.0 + libmatroska v1.4.0
    Видео
    Идентификатор : 1
    Формат : AVC
    Формат/Информация : Advanced Video Codec
    Профиль формата : High@L4.1
    Параметр CABAC формата : Да
    Параметр ReFrames формата : 10 кадров
    Идентификатор кодека : V_MPEG4/ISO/AVC
    Продолжительность : 1 ч. 34 м.
    Битрейт : 2415 Кбит/сек
    Ширина : 1024 пикселя
    Высота : 438 пикселей
    Соотношение сторон : 2,35:1
    Режим частоты кадров : Постоянный
    Частота кадров : 23,976 кадра/сек
    Цветовое пространство : YUV
    Субдискретизация насыщенности : 4:2:0
    Битовая глубина : 8 бит
    Тип развёртки : Прогрессивная
    Бит/(Пиксели*Кадры) : 0.225
    Размер потока : 1,55 Гбайт (71%)
    Заголовок : Isolation
    Библиотека кодирования : x264 core 130 r2273 b3065e6
    Настройки программы : cabac=1 / ref=10 / deblock=1:-2:-2 / analyse=0x3:0x133 / me=umh / subme=11 / psy=1 / psy_rd=1.05:0.00 / mixed_ref=1 / me_range=48 / chroma_me=1 / trellis=2 / 8x8dct=1 / cqm=0 / deadzone=21,11 / fast_pskip=0 / chroma_qp_offset=-2 / threads=9 / lookahead_threads=2 / sliced_threads=0 / nr=0 / decimate=1 / interlaced=0 / bluray_compat=0 / constrained_intra=0 / bframes=11 / b_pyramid=2 / b_adapt=2 / b_bias=0 / direct=3 / weightb=1 / open_gop=0 / weightp=2 / keyint=250 / keyint_min=23 / scenecut=40 / intra_refresh=0 / rc_lookahead=60 / rc=2pass / mbtree=0 / bitrate=2415 / ratetol=1.0 / qcomp=0.70 / qpmin=0 / qpmax=69 / qpstep=4 / cplxblur=20.0 / qblur=0.5 / vbv_maxrate=20000 / vbv_bufsize=20000 / nal_hrd=none / ip_ratio=1.35 / pb_ratio=1.25 / aq=2:0.70
    Язык : English
    Default : Да
    Forced : Нет
    Аудио #1
    Идентификатор : 2
    Формат : AC-3
    Формат/Информация : Audio Coding 3
    Расширение режима : CM (complete main)
    Параметр Endianness формата : Big
    Идентификатор кодека : A_AC3
    Продолжительность : 1 ч. 34 м.
    Вид битрейта : Постоянный
    Битрейт : 448 Кбит/сек
    Каналы : 6 каналов
    Расположение каналов : Front: L C R, Side: L R, LFE
    Частота : 48,0 КГц
    Битовая глубина : 16 бит
    Метод сжатия : С потерями
    Размер потока : 303 Мбайт (14%)
    Заголовок : DVO | DD 5.1 @ 448 kbps
    Язык : Russian
    Default : Да
    Forced : Да
    Аудио #2
    Идентификатор : 3
    Формат : AC-3
    Формат/Информация : Audio Coding 3
    Расширение режима : CM (complete main)
    Параметр Endianness формата : Big
    Идентификатор кодека : A_AC3
    Продолжительность : 1 ч. 34 м.
    Вид битрейта : Постоянный
    Битрейт : 448 Кбит/сек
    Каналы : 6 каналов
    Расположение каналов : Front: L C R, Side: L R, LFE
    Частота : 48,0 КГц
    Битовая глубина : 16 бит
    Метод сжатия : С потерями
    Размер потока : 303 Мбайт (14%)
    Заголовок : Original | DD 5.1 @ 448 kbps
    Язык : English
    Default : Нет
    Forced : Нет
    Меню
    00:00:00.000 : :Chapter 01
    00:07:37.957 : :Chapter 02
    00:14:58.856 : :Chapter 03
    00:24:33.180 : :Chapter 04
    00:31:57.790 : :Chapter 05
    00:39:09.597 : :Chapter 06
    00:46:58.982 : :Chapter 07
    00:54:44.155 : :Chapter 08
    01:02:49.891 : :Chapter 09
    01:09:51.604 : :Chapter 10
    01:18:23.407 : :Chapter 11
    01:26:18.256 : :Chapter 12

    Скриншот c названием фильма

    Скриншоты

    Скачать .torrent

    Скачать торрент-файл бесплатно и на максимальной скорости!

    Как скачивать? · Что такое торрент? · Рейтинг и ограничения

    !ВНИМАНИЕ!
    Сайт не распространяет и не хранит электронные версии произведений, а занимается лишь лишь предоставлением доступа к создаваемому пользователями каталогу ссылок на торрент-файлы, которые содержат только списки хеш-сумм, убедительная просьба с жалобами обращаться напрямую к пользователю. Файлы для обмена на трекере предоставлены пользователями сайта, и администрация не несёт ответственности за их содержание. Просьба не заливать файлы, защищенные авторскими правами, а также файлы нелегального содержания!

    [Профиль] [ЛС]
    Показать сообщения:    
    Ответить на тему

    Текущее время: Сегодня, в 16:25

    Часовой пояс: GMT + 2



    Вы не можете начинать темы
    Вы не можете отвечать на сообщения
    Вы не можете редактировать свои сообщения
    Вы не можете удалять свои сообщения
    Вы не можете голосовать в опросах
    Вы не можете прикреплять файлы к сообщениям
    Вы не можете скачивать файлы