BitTorrentTracker PerecTracker.org
BitTorrentTracker PerecTracker.org
    
Регистрация  ·  Вход
 
 · 
Забыли пароль?

  • Монстры на каникулах 2 / Hotel Transylvania 2 (Генндий Тартаковский / Genndy Tartakovsky ) [2015, США, Мультфильм, фэнтези, комедия, семейный, BDRip, HD (720p)] DUB + Original + sub (rus, eng, ukr)

    Ответить на тему
     
    Автор Сообщение

    Light

    Создавать темы 07-Янв-2016 04:26

           

    [Цитировать]

    Монстры на каникулах 2 / Hotel Transylvania 2
    «Drac's pack is back»
    7.430 / 10 6.90 / 10
    -Год выпуска: 2015
    Страна: США
    Жанр: Мультфильм, фэнтези, комедия, семейный
    Продолжительность: 01:29:18
    Перевод: Дублированный (iTunes)
    Оригинальная аудиодорожка: Есть
    Cубтитры: Русские форсированные, Русские, Английские, Украинские
    Режиссёр: Генндий Тартаковский
    Сценарий: Роберт Шмигель, Адам Сэндлер
    Продюсер: Мишель Мурдокка, Аллен Коверт, Скай Лайонс
    Композитор: Марк Мазерсбо
    Художник: Майкл Курински, Стефен Дж. Ламли
    Монтаж: Катрин Эппл
    В ролях: Адам Сэндлер, Энди Сэмберг, Селена Гомес, Кевин Джеймс, Стив Бушеми, Дэвид Спейд, Кигэн-Майкл Ки, Эшер Блинкофф, Фрэн Дрешер, Молли Шеннон
    Бюджет: $80 000 000
    Сборы в США: $167 803 439
    Сборы в мире: + $288 403 770 = $456 207 209
    Сборы в России: $17 247 966
    Мировая премьера: 21 сентября 2015
    Премьера (РФ): 22 октября 2015, «WDSSPR»
    Релиз на DVD: 21 января 2016, «CP Дистрибуция»
    Описание: Граф Дракула выдает свою очаровательную дочь замуж за парня из мира людей, и у молодой «смешанной» пары рождается сын. Станет ли этот ребенок человеком или вампиром?-Качество исходника: BDRemux (HDClub)
    Качество: BDRip
    Тип: HD (720p)
    Контейнер: M4V
    Видео: H.264, 1280x692, 1.85:1, 3 500 Kbps, 23.976 (24000/1001) fps
    Аудио 1: Русский/Дублированный (iTunes), AAC / 2.0 / 156 Kbps / 48.0 KHz
    Аудио 2: Английский/Оригинальная дорожка , AAC / 2.0 / 158 Kbps / 48.0 KHz
    Аудио 3: Украинский/Дублированный (iTunes), AAC / 2.0 / 155 Kbps / 44.1 KHz
    Аудио 4: Русский/Дублированный (iTunes), AC-3 / 5.1 / 384 Kbps / 48.0 KHz
    Аудио 5: Английский/Оригинальная дорожка , AC-3 / 5.1 / 640 Kbps / 48.0 KHz
    Субтитры 1: Русские форсированные
    Субтитры 2: Русские полные
    Субтитры 3: Английские полные
    Субтитры 4: Украинские полные
    -

    iTunes Meta Tags

    Sort Name: Hotel Transylvania 2
    XID: Apple:vendor_id:2015-716891
    contentID: 1037551705
    Screenwriters: Роберт Шмигель, Адам Сэндлер
    Producers: Мишель Мурдокка, Аллен Коверт, Скай Лайонс
    Director: Генндий Тартаковский
    Cast: Адам Сэндлер, Энди Сэмберг, Селена Гомес, Кевин Джеймс, Стив Бушеми, Дэвид Спейд, Кигэн-Майкл Ки, Эшер Блинкофф, Фрэн Дрешер, Молли Шеннон, Сергей Бурунов, Александр Пушной, Полина Гагарина, Владимир Антоник, Дмитрий Полонский
    Studio: Sony Pictures Animation Inc.
    Rating: 3
    Long Description: Граф Дракула выдает свою очаровательную дочь замуж за парня из мира людей, и у молодой "смешанной" пары рождается сын. Станет ли этот ребенок человеком или вампиром?
    Description: Граф Дракула выдает свою очаровательную дочь замуж за парня из мира людей, и у молодой "смешанной" пары рождается сын. Станет ли этот ребенок человеком или вампиром?
    Release Date: 2015-09-21T08:00:00Z
    Genre: Kids & Family
    Artist: Genndy Tartakovsky
    Name: Hotel Transylvania 2

    MediaInfo

    General
    Complete name : /Users/imac/HandBrake/Hotel Transylvania 2 (720p HD).m4v
    Format : MPEG-4
    Codec ID : M4V  (M4V /M4A /mp42/isom)
    File size : 3.12 GiB
    Duration : 1h 29mn
    Overall bit rate mode : Variable
    Overall bit rate : 5 003 Kbps
    Movie name : Hotel Transylvania 2
    Performer : Genndy Tartakovsky
    Director : Генндий Тартаковский
    Actor : Адам Сэндлер / Энди Сэмберг / Селена Гомес / Кевин Джеймс / Стив Бушеми / Дэвид Спейд / Кигэн-Майкл Ки / Эшер Блинкофф / Фрэн Дрешер / Молли Шеннон / Сергей Бурунов / Александр Пушной / Полина Гагарина / Владимир Антоник / Дмитрий Полонский
    Screenplay by : Роберт Шмигель / Адам Сэндлер
    Producer : Мишель Мурдокка / Аллен Коверт / Скай Лайонс
    Production studio : Sony Pictures Animation Inc.
    Genre : Kids & Family
    ContentType : Short Film
    Description : Граф Дракула выдает свою очаровательную дочь замуж за парня из мира людей, и у молодой "смешанной" пары рождается сын. Станет ли этот ребенок человеком или вампиром?
    Recorded date : UTC 2015-09-21 08:00:00
    Encoded date : UTC 2015-12-30 10:18:42
    Tagged date : UTC 2015-12-30 10:34:36
    Cover : Yes
    Rating : None
    Title/Sort : Hotel Transylvania 2
    LongDescription : Граф Дракула выдает свою очаровательную дочь замуж за парня из мира людей, и у молодой "смешанной" пары рождается сын. Станет ли этот ребенок человеком или вампиром?
    HDVideo : Yes
    AppleStoreCatalogID : 1037551705
    Vendor : Apple:vendor_id:2015-716891
    ContentRating : mpaa|PG|200|
    Video #1
    ID : 1
    Format : AVC
    Format/Info : Advanced Video Codec
    Format profile : High@L3.1
    Format settings, CABAC : No
    Format settings, ReFrames : 3 frames
    Codec ID : avc1
    Codec ID/Info : Advanced Video Coding
    Duration : 1h 29mn
    Source duration : 1h 29mn
    Bit rate : 3 500 Kbps
    Width : 1 280 pixels
    Height : 692 pixels
    Display aspect ratio : 1.85:1
    Frame rate mode : Variable
    Frame rate : 23.976 (24000/1001) fps
    Minimum frame rate : 23.974 fps
    Maximum frame rate : 23.981 fps
    Color space : YUV
    Chroma subsampling : 4:2:0
    Bit depth : 8 bits
    Scan type : Progressive
    Bits/(Pixel*Frame) : 0.165
    Stream size : 2.18 GiB (70%)
    Source stream size : 2.18 GiB (70%)
    Title : Main Program
    Writing library : x264 core 142 r2479 dd79a61
    Encoding settings : cabac=0 / ref=3 / deblock=1:-3:-3 / analyse=0x3:0x113 / me=umh / subme=9 / psy=1 / psy_rd=1.00:0.15 / mixed_ref=1 / me_range=32 / chroma_me=1 / trellis=0 / 8x8dct=1 / cqm=0 / deadzone=21,11 / fast_pskip=0 / chroma_qp_offset=-2 / threads=36 / lookahead_threads=3 / sliced_threads=0 / nr=0 / decimate=0 / interlaced=0 / bluray_compat=0 / constrained_intra=0 / bframes=3 / b_pyramid=0 / b_adapt=2 / b_bias=0 / direct=1 / weightb=0 / open_gop=0 / weightp=0 / keyint=240 / keyint_min=24 / scenecut=40 / intra_refresh=0 / rc_lookahead=40 / rc=2pass / mbtree=1 / bitrate=3500 / ratetol=1.0 / qcomp=0.65 / qpmin=0 / qpmax=69 / qpstep=4 / cplxblur=20.0 / qblur=0.5 / vbv_maxrate=9500 / vbv_bufsize=9500 / nal_hrd=none / filler=0 / ip_ratio=1.40 / aq=1:1.10
    Language : English
    Encoded date : UTC 2015-12-30 10:18:42
    Tagged date : UTC 2015-12-30 10:18:46
    Color range : Limited
    Color primaries : BT.709
    Transfer characteristics : BT.709
    Matrix coefficients : BT.709
    Menus : 11,12
    Video #2
    ID : 12
    Format : JPEG
    Codec ID : jpeg
    Duration : 1h 29mn
    Bit rate mode : Variable
    Bit rate : 956 bps
    Width : 640 pixels
    Height : 346 pixels
    Display aspect ratio : 1.85:1
    Frame rate mode : Variable
    Frame rate : 0.003 fps
    Minimum frame rate : 0.002 fps
    Maximum frame rate : 0.005 fps
    Color space : YUV
    Chroma subsampling : 4:2:0
    Bit depth : 8 bits
    Compression mode : Lossy
    Bits/(Pixel*Frame) : 1.439
    Stream size : 623 KiB (0%)
    Title : Chapter Images
    Language : English
    Default : No
    Encoded date : UTC 2015-12-30 10:19:24
    Tagged date : UTC 2015-12-30 10:19:24
    Menu For : 1
    Audio #1
    ID : 2
    Format : AAC
    Format/Info : Advanced Audio Codec
    Format profile : LC
    Codec ID : 40
    Duration : 1h 29mn
    Bit rate mode : Variable
    Bit rate : 156 Kbps
    Maximum bit rate : 255 Kbps
    Channel(s) : 2 channels
    Channel positions : Front: L R
    Sampling rate : 48.0 KHz
    Frame rate : 46.875 fps (1024 spf)
    Compression mode : Lossy
    Stream size : 99.7 MiB (3%)
    Title : Russian Stereo
    Language : Russian
    Default : Yes
    Alternate group : 1
    Encoded date : UTC 2015-12-30 10:18:42
    Tagged date : UTC 2015-12-30 10:19:20
    Fallback From : 5
    Subtitles : 7,8
    Audio #2
    ID : 3
    Format : AAC
    Format/Info : Advanced Audio Codec
    Format profile : LC
    Codec ID : 40
    Duration : 1h 29mn
    Bit rate mode : Variable
    Bit rate : 158 Kbps
    Maximum bit rate : 256 Kbps
    Channel(s) : 2 channels
    Channel positions : Front: L R
    Sampling rate : 48.0 KHz
    Frame rate : 46.875 fps (1024 spf)
    Compression mode : Lossy
    Stream size : 101 MiB (3%)
    Title : English Stereo
    Language : English
    Default : No
    Alternate group : 1
    Encoded date : UTC 2015-12-30 10:18:42
    Tagged date : UTC 2015-12-30 10:19:20
    Fallback From : 6
    Audio #3
    ID : 4
    Format : AAC
    Format/Info : Advanced Audio Codec
    Format profile : LC
    Codec ID : 40
    Duration : 1h 29mn
    Bit rate mode : Variable
    Bit rate : 155 Kbps
    Maximum bit rate : 269 Kbps
    Channel(s) : 2 channels
    Channel positions : Front: L R
    Sampling rate : 44.1 KHz
    Frame rate : 43.066 fps (1024 spf)
    Compression mode : Lossy
    Stream size : 99.2 MiB (3%)
    Title : Ukrainian Stereo
    Language : Ukrainian
    Default : No
    Alternate group : 1
    Encoded date : UTC 2015-12-30 10:18:42
    Tagged date : UTC 2015-12-30 10:19:20
    Audio #4
    ID : 5
    Format : AC-3
    Format/Info : Audio Coding 3
    Mode extension : CM (complete main)
    Format settings, Endianness : Big
    Codec ID : ac-3
    Duration : 1h 29mn
    Bit rate mode : Constant
    Bit rate : 384 Kbps
    Channel(s) : 6 channels
    Channel positions : Front: L C R, Side: L R, LFE
    Sampling rate : 48.0 KHz
    Frame rate : 31.250 fps (1536 spf)
    Bit depth : 16 bits
    Compression mode : Lossy
    Stream size : 245 MiB (8%)
    Title : Russian DD 5.1
    Language : Russian
    Default : Inherited From: 2
    Alternate group : 1
    Encoded date : UTC 2015-12-30 10:18:42
    Tagged date : UTC 2015-12-30 10:19:20
    Fallback To : 2
    Subtitles : 7,8
    Audio #5
    ID : 6
    Format : AC-3
    Format/Info : Audio Coding 3
    Mode extension : CM (complete main)
    Format settings, Endianness : Big
    Codec ID : ac-3
    Duration : 1h 29mn
    Bit rate mode : Constant
    Bit rate : 640 Kbps
    Channel(s) : 6 channels
    Channel positions : Front: L C R, Side: L R, LFE
    Sampling rate : 48.0 KHz
    Frame rate : 31.250 fps (1536 spf)
    Bit depth : 16 bits
    Compression mode : Lossy
    Stream size : 409 MiB (13%)
    Title : English DD 5.1
    Language : English
    Default : No
    Alternate group : 1
    Encoded date : UTC 2015-12-30 10:18:42
    Tagged date : UTC 2015-12-30 10:19:20
    Fallback To : 3
    Text #1
    ID : 7
    Format : Timed Text
    Muxing mode : sbtl
    Codec ID : tx3g
    Duration : 1h 20mn
    Bit rate mode : Variable
    Bit rate : 0 bps
    Stream size : 189 Bytes (0%)
    Title : Russian forced
    Language : Russian
    Default : Yes
    Forced : Yes
    Alternate group : 2
    Encoded date : UTC 2015-12-30 10:18:42
    Tagged date : UTC 2015-12-30 10:19:10
    Subtitles For : 2,5
    Full Alternative : 8
    Text #2
    ID : 8
    Format : Timed Text
    Muxing mode : sbtl
    Codec ID : tx3g
    Duration : 1h 20mn
    Bit rate mode : Variable
    Bit rate : 126 bps
    Stream size : 74.0 KiB (0%)
    Title : Russian full
    Language : Russian
    Default : No
    Forced : No
    Alternate group : 2
    Encoded date : UTC 2015-12-30 10:18:42
    Tagged date : UTC 2015-12-30 10:19:17
    Subtitles For : 2,5
    Forced Alternative : 7
    Text #3
    ID : 9
    Format : Timed Text
    Muxing mode : sbtl
    Codec ID : tx3g
    Duration : 1h 20mn
    Bit rate mode : Variable
    Bit rate : 73 bps
    Stream size : 42.7 KiB (0%)
    Title : English full
    Language : English
    Default : No
    Forced : No
    Alternate group : 2
    Encoded date : UTC 2015-12-30 10:18:42
    Tagged date : UTC 2015-12-30 10:19:17
    Text #4
    ID : 10
    Format : Timed Text
    Muxing mode : sbtl
    Codec ID : tx3g
    Duration : 1h 20mn
    Bit rate mode : Variable
    Bit rate : 125 bps
    Stream size : 73.9 KiB (0%)
    Title : Ukrainian full
    Language : Ukrainian
    Default : No
    Forced : No
    Alternate group : 2
    Encoded date : UTC 2015-12-30 10:18:42
    Tagged date : UTC 2015-12-30 10:19:17
    Menu #1
    00:00:00.000 : Chapter 1
    00:05:46.555 : Chapter 2
    00:09:17.724 : Chapter 3
    00:13:09.789 : Chapter 4
    00:19:29.210 : Chapter 5
    00:22:42.570 : Chapter 6
    00:30:05.387 : Chapter 7
    00:36:12.462 : Chapter 8
    00:40:01.065 : Chapter 9
    00:45:54.460 : Chapter 10
    00:51:22.538 : Chapter 11
    00:56:54.995 : Chapter 12
    01:04:02.005 : Chapter 13
    01:08:32.900 : Chapter 14
    01:13:29.488 : Chapter 15
    01:18:35.961 : Chapter 16
    Menu #2
    ID : 11
    Codec ID : text
    Duration : 1h 29mn
    Language : English
    Encoded date : UTC 2015-12-30 10:19:20
    Tagged date : UTC 2015-12-30 10:19:20
    Menu For : 1
    00:00:00.000 : Chapter 1
    00:05:46.555 : Chapter 2
    00:09:17.724 : Chapter 3
    00:13:09.789 : Chapter 4
    00:19:29.210 : Chapter 5
    00:22:42.570 : Chapter 6
    00:30:05.387 : Chapter 7
    00:36:12.462 : Chapter 8
    00:40:01.065 : Chapter 9
    00:45:54.460 : Chapter 10
    00:51:22.538 : Chapter 11
    00:56:54.995 : Chapter 12
    01:04:02.005 : Chapter 13
    01:08:32.900 : Chapter 14
    01:13:29.488 : Chapter 15
    01:18:35.961 : Chapter 16
    Bit rate mode : VBR

    x264 лог

    x264 [info]: frame I:1183  Avg QP:13.38  size:134036
    x264 [info]: frame P:56533 Avg QP:15.42  size: 30438
    x264 [info]: frame B:70755 Avg QP:19.04  size:  6570
    x264 [info]: consecutive B-frames:  5.7% 59.6%  9.2% 25.5%
    x264 [info]: mb I  I16..4:  8.5% 55.5% 36.1%
    x264 [info]: mb P  I16..4:  2.2%  6.0%  2.9%  P16..4: 47.2% 19.6%  8.7%  0.0%  0.0%    skip:13.5%
    x264 [info]: mb B  I16..4:  0.2%  0.7%  0.4%  B16..8: 33.6%  7.1%  1.1%  direct: 2.1%  skip:54.8%  L0:38.9% L1:53.6% BI: 7.5%
    x264 [info]: 8x8 transform intra:54.0% inter:38.3%
    x264 [info]: coded y,uvDC,uvAC intra: 75.5% 80.6% 61.1% inter: 17.6% 19.1% 12.3%
    x264 [info]: i16 v,h,dc,p: 35% 13%  7% 45%
    x264 [info]: i8 v,h,dc,ddl,ddr,vr,hd,vl,hu: 11%  8%  9% 10% 13% 13% 13% 11% 11%
    x264 [info]: i4 v,h,dc,ddl,ddr,vr,hd,vl,hu: 15%  9%  5% 11% 15% 14% 12% 10%  8%
    x264 [info]: i8c dc,h,v,p: 46% 18% 21% 14%
    x264 [info]: ref P L0: 74.3% 14.6% 11.0%
    x264 [info]: ref B L0: 79.3% 20.7%
    x264 [info]: kb/s:3499.87

    Скриншоты

    -

    Релиз подготовлен для просмотра на Apple TV, iPad, iPhone, iPod Touch.
    Для просмотра данного релиза на компьютере с ОС Windows рекомендуется использовать VLC media player
    Скачать .torrent

    Скачать торрент-файл бесплатно и на максимальной скорости!

    Как скачивать? · Что такое торрент? · Рейтинг и ограничения

    !ВНИМАНИЕ!
    Сайт не распространяет и не хранит электронные версии произведений, а занимается лишь лишь предоставлением доступа к создаваемому пользователями каталогу ссылок на торрент-файлы, которые содержат только списки хеш-сумм, убедительная просьба с жалобами обращаться напрямую к пользователю. Файлы для обмена на трекере предоставлены пользователями сайта, и администрация не несёт ответственности за их содержание. Просьба не заливать файлы, защищенные авторскими правами, а также файлы нелегального содержания!


    _________________
    [Профиль] [ЛС]
    Показать сообщения:    
    Ответить на тему

    Текущее время: Сегодня, в 10:05

    Часовой пояс: GMT + 2



    Вы не можете начинать темы
    Вы не можете отвечать на сообщения
    Вы не можете редактировать свои сообщения
    Вы не можете удалять свои сообщения
    Вы не можете голосовать в опросах
    Вы не можете прикреплять файлы к сообщениям
    Вы не можете скачивать файлы