BitTorrentTracker PerecTracker.org
BitTorrentTracker PerecTracker.org
    
Регистрация  ·  Вход
 
 · 
Забыли пароль?

  • Сексуальный вор / The Sex Thief (Мартин Кэмпбелл / Martin Campbell) [1974, Великобритания, Эротическая комедия, HDRip] AVO (Алексеев) + Original Eng

    Ответить на тему
     
    Автор Сообщение

    rechyn

    Создавать темы 06-Янв-2016 20:48

           

    [Цитировать]

    Сексуальный вор / The Sex Thief
    Страна: Великобритания
    Жанр: Эротическая комедия
    Год выпуска: 1974
    Продолжительность: 01:33:14.
    Перевод: Авторский (одноголосый закадровый) Алексеев
    Cубтитры: нет
    Оригинальная аудиодорожка: английский
    Режиссер: Мартин Кэмпбелл / Martin Campbell
    В ролях: Дженнифер Уэстбрук (Эмили Барроу), Дэвид Уорбек (Грани Генри), Генри Райнер (констебль), Джеральд Тейлор (Герберт Барроу), Кристофер Биггинс (лорд Прескотт)
    Описание: Инспектор полиции и страховой агент пытаются поймать дерзкого похитителя сокровищ.
    Доп. информация: За синхрон дорожки спасибо xelon2006
    Сэмпл: https://yadi.sk/i/ON5HS9mqmhLS7
    Качество видео: HDRip
    Формат видео: AVI
    Видео: 720x464 (1.55:1), 23.976 fps, XviD build 73 ~1898 kbps avg, 0.24 bit/pixel
    Аудио 1: 48 kHz, AC3 Dolby Digital, 2/0 (L,R) ch, ~192 kbps
    Аудио 2: 48 kHz, AC3 Dolby Digital, 2/0 (L,R) ch, ~192 kbps Eng

    MediaInfo

    Сексуальный вор - The Sex Thief [by Edich2].avi
    Format : AVI
    Format/Info : Audio Video Interleave
    File size : 1.50 GiB
    Duration : 1h 33mn
    Overall bit rate : 2 297 Kbps
    Movie name : Сексуальный вор - The Sex Thief [by Edich2]
    Director : by Edich2
    Writing application : VirtualDubMod 1.5.10.2 (build 2540/release)
    Comment : Rutracker.org
    Video
    ID : 0
    Format : MPEG-4 Visual
    Format profile : Advanced Simple@L5
    Format settings, BVOP : 1
    Format settings, QPel : No
    Format settings, GMC : No warppoints
    Format settings, Matrix : Default (H.263)
    Codec ID : XVID
    Codec ID/Hint : XviD
    Duration : 1h 33mn
    Bit rate : 1 899 Kbps
    Width : 720 pixels
    Height : 464 pixels
    Display aspect ratio : 16:10
    Frame rate : 23.976 fps
    Color space : YUV
    Chroma subsampling : 4:2:0
    Bit depth : 8 bits
    Scan type : Progressive
    Compression mode : Lossy
    Bits/(Pixel*Frame) : 0.237
    Stream size : 1.24 GiB (83%)
    Writing library : XviD 73
    Audio #1
    ID : 1
    Format : AC-3
    Format/Info : Audio Coding 3
    Mode extension : CM (complete main)
    Format settings, Endianness : Big
    Codec ID : 2000
    Duration : 1h 33mn
    Bit rate mode : Constant
    Bit rate : 192 Kbps
    Channel(s) : 2 channels
    Channel positions : Front: L R
    Sampling rate : 48.0 KHz
    Bit depth : 16 bits
    Compression mode : Lossy
    Stream size : 128 MiB (8%)
    Alignment : Split accross interleaves
    Interleave, duration : 42 ms (1.00 video frame)
    Interleave, preload duration : 500 ms
    Audio #2
    ID : 2
    Format : AC-3
    Format/Info : Audio Coding 3
    Mode extension : CM (complete main)
    Format settings, Endianness : Big
    Codec ID : 2000
    Duration : 1h 33mn
    Bit rate mode : Constant
    Bit rate : 192 Kbps
    Channel(s) : 2 channels
    Channel positions : Front: L R
    Sampling rate : 48.0 KHz
    Bit depth : 16 bits
    Compression mode : Lossy
    Stream size : 128 MiB (8%)
    Alignment : Split accross interleaves
    Interleave, duration : 42 ms (1.00 video frame)
    Interleave, preload duration : 500 ms

    Скриншоты





    Скачать .torrent

    Скачать торрент-файл бесплатно и на максимальной скорости!

    Как скачивать? · Что такое торрент? · Рейтинг и ограничения

    !ВНИМАНИЕ!
    Сайт не распространяет и не хранит электронные версии произведений, а занимается лишь лишь предоставлением доступа к создаваемому пользователями каталогу ссылок на торрент-файлы, которые содержат только списки хеш-сумм, убедительная просьба с жалобами обращаться напрямую к пользователю. Файлы для обмена на трекере предоставлены пользователями сайта, и администрация не несёт ответственности за их содержание. Просьба не заливать файлы, защищенные авторскими правами, а также файлы нелегального содержания!


    _________________
    [Профиль] [ЛС]
    Показать сообщения:    
    Ответить на тему

    Текущее время: Сегодня, в 12:03

    Часовой пояс: GMT + 2



    Вы не можете начинать темы
    Вы не можете отвечать на сообщения
    Вы не можете редактировать свои сообщения
    Вы не можете удалять свои сообщения
    Вы не можете голосовать в опросах
    Вы не можете прикреплять файлы к сообщениям
    Вы не можете скачивать файлы