BitTorrentTracker PerecTracker.org
BitTorrentTracker PerecTracker.org
    
Регистрация  ·  Вход
 
 · 
Забыли пароль?

  • Шарлотта Земляничка: Большое ягодное Рождество / Strawberry Shortcake: Berry, Merry Christmas (Луис Гассин / Louis Gassin) [2003, США, мультфильм, детский, семейный, DVDRip-AVC] Dub + MVO + Original Eng + eng sub

    Ответить на тему
     
    Автор Сообщение

    rechyn

    Создавать темы 06-Янв-2016 16:11

           

    [Цитировать]

    Шарлотта Земляничка: Большое ягодное Рождество / Strawberry Shortcake: Berry, Merry Christmas-Страна: США
    Жанр: мультфильм, детский, семейный
    Продолжительность: 00:45:11
    Год выпуска: 2003
    Перевод 1: Профессиональный (дублированный) - Канал "TiJi"
    Перевод 2: Профессиональный (многоголосый закадровый)
    Русские субтитры: нет-Режиссёр: Луис Гассин / Louis Gassin
    Роли озвучивали: Сара Хейнк, ДеЖаре Барфилд, Дэниэл Кэнвилд, Нилс Хааланд, Джей Хэнсон, Ханна Кослоски, Сара Кослоски, Кэти Лабоски, Джерри Лондж, Корк Рамер- | Релиз: -Описание: Земляничка отправляется в Праздничную страну с пони Медок, чтобы найти подарки для своих друзей. Путешествие на Северный Полюс обернулось визитом к Санте и стало воистину волшебным! Правда, все подарки, которые подготовила Земляничка для своих друзей, намокли, но ведь Рождество — это время чудес, а дороже настоящей дружбы ничего не может быть.-Семпл: http://sendfile.su/1190402-Качество: DVDRip-AVC
    Формат: MKV
    Видео: 714x480 (4:3) @ 636x480, 23.976 fps, AVC, ~1726 Kbps, 0.210 bits/pixel
    Аудио 1: Русский, AC3, 2/0 (L,R) ch, 192 kbps - Дублированный | Канал TiJi
    Аудио 1: Русский, AC3, 2/0 (L,R) ch, 192 kbps - Многоголосый закадровый
    Аудио 2: English, AC3, 2/0 (L,R) ch, 192 kbps
    Субтитры: English
    MediaInfo

    x264 log

    x264 [info]: 714x480p 8:9 @ 24000/1001 fps (cfr)
    x264 [info]: using SAR=8/9
    x264 [info]: using cpu capabilities: MMX2 SSE2Fast SSSE3 SSE4.2 AVX
    x264 [info]: profile High, level 4.0
    x264 [info]: cabac=1 ref=16 deblock=1:-1:-1 analyse=0x3:0x133 me=umh subme=11 psy=1 fade_compensate=0.00 psy_rd=1.00:0.00 mixed_ref=1 me_range=48 chroma_me=1 trellis=2 8x8dct=1 cqm=0 deadzone=21,11 fast_pskip=0 chroma_qp_offset=-2 threads=12 lookahead_threads=3 sliced_threads=0 nr=0 decimate=1 interlaced=0 bluray_compat=0 constrained_intra=0 fgo=0 bframes=11 b_pyramid=2 b_adapt=2 b_bias=0 direct=3 weightb=1 open_gop=0 weightp=2 keyint=250 keyint_min=23 scenecut=40 intra_refresh=0 rc=crf mbtree=0 crf=16.0000 qcomp=0.60 qpmin=0 qpmax=69 qpstep=4 ip_ratio=1.40 pb_ratio=1.30 aq=1:0.90
    x264 [info]: frame I:566 Avg QP:17.23 size: 62395
    x264 [info]: frame P:15975 Avg QP:18.49 size: 19319
    x264 [info]: frame B:48458 Avg QP:20.19 size: 5277
    x264 [info]: consecutive B-frames: 3.2% 5.4% 10.5% 29.1% 22.0% 15.2% 6.5% 5.0% 1.4% 0.9% 0.3% 0.5%
    x264 [info]: mb I I16..4: 5.1% 45.6% 49.3%
    x264 [info]: mb P I16..4: 0.6% 4.3% 2.6% P16..4: 34.7% 31.2% 13.6% 2.5% 0.3% skip:10.3%
    x264 [info]: mb B I16..4: 0.1% 0.4% 0.2% B16..8: 28.5% 12.8% 3.0% direct: 3.7% skip:51.3% L0:42.0% L1:48.5% BI: 9.5%
    x264 [info]: 8x8 transform intra:54.1% inter:46.3%
    x264 [info]: direct mvs spatial:100.0% temporal:0.0%
    x264 [info]: coded y,uvDC,uvAC intra: 81.1% 90.6% 83.5% inter: 18.8% 21.4% 8.8%
    x264 [info]: i16 v,h,dc,p: 33% 23% 10% 35%
    x264 [info]: i8 v,h,dc,ddl,ddr,vr,hd,vl,hu: 10% 10% 14% 9% 10% 10% 11% 10% 15%
    x264 [info]: i4 v,h,dc,ddl,ddr,vr,hd,vl,hu: 13% 12% 9% 9% 12% 11% 12% 10% 13%
    x264 [info]: i8c dc,h,v,p: 35% 34% 19% 12%
    x264 [info]: Weighted P-Frames: Y:3.1% UV:2.7%
    x264 [info]: ref P L0: 44.6% 5.0% 18.2% 6.0% 5.3% 4.1% 3.6% 1.9% 1.8% 1.7% 1.6% 1.6% 1.3% 1.2% 1.2% 0.8%
    x264 [info]: ref B L0: 67.3% 13.0% 5.3% 2.9% 2.3% 2.0% 1.5% 0.9% 0.9% 0.9% 0.8% 0.9% 0.7% 0.5% 0.3%
    x264 [info]: ref B L1: 93.0% 7.0%
    x264 [info]: kb/s:1769.60
    x264 [info]: encoded 64999 frames, 9.25 fps, 1769.60 kb/s, duration 1:57:07.70
    GeneralUnique ID : 207471657147608161234189182193967163001 (0x9C1596743E1E42E48DB870B7D945E679)Complete name : E:\DVD\Berry, Merry Christmas\Strawberry.Shortcake-Berry,Merry.Christmas.2003.DVDRip.AVC-rutracker.xfiles.mkvFormat : MatroskaFormat version : Version 4 / Version 2File size : 759 MiBDuration : 45mn 11sOverall bit rate : 2 349 KbpsMovie name : Strawberry.Shortcake-Berry,Merry.Christmas.2003.DVDRip.AVC-rutracker.xfilesEncoded date : UTC 2016-01-06 11:05:58Writing application : mkvmerge v8.3.0 ('Over the Horizon') 64bitWriting library : libebml v1.3.1 + libmatroska v1.4.2Cover : YesAttachments : Cover.jpg / x264.log
    VideoID : 1Format : AVCFormat/Info : Advanced Video CodecFormat profile : High@L4Format settings, CABAC : YesFormat settings, ReFrames : 16 framesCodec ID : V_MPEG4/ISO/AVCDuration : 45mn 11sBit rate : 1 726 KbpsWidth : 714 pixelsHeight : 480 pixelsDisplay aspect ratio : 4:3Frame rate mode : ConstantFrame rate : 23.976 (24000/1001) fpsColor space : YUVChroma subsampling : 4:2:0Bit depth : 8 bitsScan type : ProgressiveBits/(Pixel*Frame) : 0.210Stream size : 558 MiB (73%)Title : http://perectracker.org/viewtopic.php?t=5145325Writing library : x264 core 148 r2638kMod 7599210Encoding settings : cabac=1 / ref=16 / deblock=1:-1:-1 / analyse=0x3:0x133 / me=umh / subme=11 / psy=1 / fade_compensate=0.00 / psy_rd=1.00:0.00 / mixed_ref=1 / me_range=48 /chroma_me=1 / trellis=2 / 8x8dct=1 / cqm=0 / deadzone=21,11 / fast_pskip=0 / chroma_qp_offset=-2 / threads=12 / lookahead_threads=3 / sliced_threads=0 / nr=0 / decimate=1 / interlaced=0 /bluray_compat=0 / constrained_intra=0 / fgo=0 / bframes=11 / b_pyramid=2 / b_adapt=2 / b_bias=0 / direct=3 / weightb=1 / open_gop=0 / weightp=2 / keyint=250 / keyint_min=23 / scenecut=40 /intra_refresh=0 / rc=crf / mbtree=0 / crf=16.0000 / qcomp=0.60 / qpmin=0 / qpmax=69 / qpstep=4 / ip_ratio=1.40 / pb_ratio=1.30 / aq=1:0.90Language : EnglishDefault : YesForced : No
    Audio #1ID : 2Format : AC-3Format/Info : Audio Coding 3Mode extension : CM (complete main)Format settings, Endianness : BigCodec ID : A_AC3Duration : 45mn 11sBit rate mode : ConstantBit rate : 192 KbpsChannel(s) : 2 channelsChannel positions : Front: L RSampling rate : 48.0 KHzFrame rate : 31.250 fps (1536 spf)Compression mode : LossyStream size : 62.0 MiB (8%)Title : Дубляж | Канал TiJiLanguage : RussianDefault : YesForced : No
    Audio #2ID : 3Format : AC-3Format/Info : Audio Coding 3Mode extension : CM (complete main)Format settings, Endianness : BigCodec ID : A_AC3Duration : 45mn 11sBit rate mode : ConstantBit rate : 192 KbpsChannel(s) : 2 channelsChannel positions : Front: L RSampling rate : 48.0 KHzFrame rate : 31.250 fps (1536 spf)Compression mode : LossyStream size : 62.0 MiB (8%)Title : Многоголосый закадровыйLanguage : RussianDefault : NoForced : No
    Audio #3ID : 4Format : AC-3Format/Info : Audio Coding 3Mode extension : CM (complete main)Format settings, Endianness : BigCodec ID : A_AC3Duration : 45mn 11sBit rate mode : ConstantBit rate : 192 KbpsChannel(s) : 2 channelsChannel positions : Front: L RSampling rate : 48.0 KHzFrame rate : 31.250 fps (1536 spf)Compression mode : LossyStream size : 62.0 MiB (8%)Title : OriginalLanguage : EnglishDefault : NoForced : No
    TextID : 5Format : UTF-8Codec ID : S_TEXT/UTF8Codec ID/Info : UTF-8 Plain TextLanguage : EnglishDefault : NoForced : No
    Menu00:00:00.000 : en:1. Call Me Santa00:11:14.367 : en:2. Holiday Land00:24:01.800 : en:3. Never Ever Thought00:35:56.634 : en:4. Gift Of Friendship

    Скриншоты

    Скачать .torrent

    Скачать торрент-файл бесплатно и на максимальной скорости!

    Как скачивать? · Что такое торрент? · Рейтинг и ограничения

    !ВНИМАНИЕ!
    Сайт не распространяет и не хранит электронные версии произведений, а занимается лишь лишь предоставлением доступа к создаваемому пользователями каталогу ссылок на торрент-файлы, которые содержат только списки хеш-сумм, убедительная просьба с жалобами обращаться напрямую к пользователю. Файлы для обмена на трекере предоставлены пользователями сайта, и администрация не несёт ответственности за их содержание. Просьба не заливать файлы, защищенные авторскими правами, а также файлы нелегального содержания!


    _________________
    [Профиль] [ЛС]
    Показать сообщения:    
    Ответить на тему

    Текущее время: Сегодня, в 22:06

    Часовой пояс: GMT + 2



    Вы не можете начинать темы
    Вы не можете отвечать на сообщения
    Вы не можете редактировать свои сообщения
    Вы не можете удалять свои сообщения
    Вы не можете голосовать в опросах
    Вы не можете прикреплять файлы к сообщениям
    Вы не можете скачивать файлы