BitTorrentTracker PerecTracker.org
BitTorrentTracker PerecTracker.org
    
Регистрация  ·  Вход
 
 · 
Забыли пароль?

  • Волчонок 2 / Teen Wolf Too (Кристофер Лейтч / Christopher Leitch) [1987, США, фэнтези, комедия, WEB-DL 1080p] DVO (НТВ+) + MVO (СТС) + Sub Eng + Original Eng

    Ответить на тему
     
    Автор Сообщение

    Flirldrerve

    Создавать темы 05-Янв-2016 23:55

           

    [Цитировать]

    Волчонок 2 / Teen Wolf Too
    Страна: США
    Студия: Atlantic Entertainment Group
    Жанр: фэнтези, комедия
    Год выпуска: 1987
    Продолжительность: 01:34:21
    Перевод: Профессиональный (двухголосый закадровый) НТВ+
    Перевод 2: Профессиональный (многоголосый закадровый) СТС
    Cубтитры: английские
    Оригинальная аудиодорожка: английский
    Режиссер: Кристофер Лейтч / Christopher Leitch
    В ролях: Джейсон Бейтман, Ким Дарби, Джон Эстин, Пол Сэнд, Джеймс Хэмптон. Марк Холтон, Эсте Чэндлер, Роберт Нири, Стюарт Фрэткин, Бет Миллер
    Описание: Мальчик Скотти был оборотнем, но в образе волчонка достиг больших успехов в спорте и стал звездой района. Но фильм вовсе не о Скотте, а о его кузене Тоде. Тод совсем не был оборотнем, не занимался спортом, а хотел изучать биологию. Но в колледже ему дали спортивную стипендию и заставили заниматься боксом, иначе — исключение.
    Тут озвереешь, с волками жить — по волчьи выть! Тод и взвыл, и озверел, оброс волосами и когтями и сразу стал знаменитым. Над приключениями незадачливого и добродушного оборотня зритель посмеется от души. Грим отличный, диалоги смешные, танцы заводные. А зверя в себе все же надо вытравить. Он ведь в каждом сидит, зверь-то…

    Кинопоиск
    Sample
    Тип релиза: WEB-DL 1080p
    Контейнер: MKV
    Видео: MPEG4 AVC Video, H264, 16:9, 1916x1036, 23.976 fps, 4891 kbps
    Аудио: Russian (AC3, 2 ch, 192 kbps, 16 bits, 48.0 KHz) - НТВ+
    Аудио 2: Russian (AC3, 2 ch, 192 kbps, 16 bits, 48.0 KHz) - СТС
    Аудио 3: English (AAC, 2 ch, 175 kbps, 16 bits, 48.0 KHz) - оригинал
    Формат субтитров: softsub (SRT)

    MediaInfo

    General
    Unique ID : 248053211569010470960174786695355838666 (0xBA9D4F905747DA399D8A33D9EAE630CA)
    Complete name : L:\Teen Wolf Too 1987 WEB-DL 1080p.mkv
    Format : Matroska
    Format version : Version 4 / Version 2
    File size : 3.63 GiB
    Duration : 1h 34mn
    Overall bit rate : 5 502 Kbps
    Encoded date : UTC 2015-12-07 01:01:11
    Writing application : mkvmerge v6.1.0 ('Old Devil') built on Mar 2 2013 14:32:37
    Writing library : libebml v1.3.0 + libmatroska v1.4.0
    Video
    ID : 1
    Format : AVC
    Format/Info : Advanced Video Codec
    Format profile : High@L4.0
    Format settings, CABAC : Yes
    Format settings, ReFrames : 4 frames
    Codec ID : V_MPEG4/ISO/AVC
    Duration : 1h 34mn
    Width : 1 916 pixels
    Height : 1 036 pixels
    Display aspect ratio : 1.85:1
    Frame rate mode : Constant
    Frame rate : 23.976 fps
    Color space : YUV
    Chroma subsampling : 4:2:0
    Bit depth : 8 bits
    Scan type : Progressive
    Language : English
    Default : Yes
    Forced : No
    Color primaries : BT.709
    Transfer characteristics : BT.709
    Matrix coefficients : BT.709
    Audio #1
    ID : 2
    Format : AC-3
    Format/Info : Audio Coding 3
    Mode extension : CM (complete main)
    Format settings, Endianness : Big
    Codec ID : A_AC3
    Duration : 1h 34mn
    Bit rate mode : Constant
    Bit rate : 192 Kbps
    Channel count : 2 channels
    Channel positions : Front: L R
    Sampling rate : 48.0 KHz
    Bit depth : 16 bits
    Compression mode : Lossy
    Stream size : 130 MiB (3%)
    Title : НТВ+
    Language : Russian
    Default : Yes
    Forced : No
    Audio #2
    ID : 3
    Format : AC-3
    Format/Info : Audio Coding 3
    Mode extension : CM (complete main)
    Format settings, Endianness : Big
    Codec ID : A_AC3
    Duration : 1h 34mn
    Bit rate mode : Constant
    Bit rate : 192 Kbps
    Channel count : 2 channels
    Channel positions : Front: L R
    Sampling rate : 48.0 KHz
    Bit depth : 16 bits
    Compression mode : Lossy
    Stream size : 130 MiB (3%)
    Title : СТС
    Language : Russian
    Default : No
    Forced : No
    Audio #3
    ID : 4
    Format : AAC
    Format/Info : Advanced Audio Codec
    Format profile : LC
    Codec ID : A_AAC
    Duration : 1h 34mn
    Channel count : 2 channels
    Channel positions : Front: L R
    Sampling rate : 48.0 KHz
    Compression mode : Lossy
    Language : English
    Default : No
    Forced : No
    Text
    ID : 5
    Format : UTF-8
    Codec ID : S_TEXT/UTF8
    Codec ID/Info : UTF-8 Plain Text
    Language : English
    Default : No
    Forced : No

    Скриншоты

    Скачать .torrent

    Скачать торрент-файл бесплатно и на максимальной скорости!

    Как скачивать? · Что такое торрент? · Рейтинг и ограничения

    !ВНИМАНИЕ!
    Сайт не распространяет и не хранит электронные версии произведений, а занимается лишь лишь предоставлением доступа к создаваемому пользователями каталогу ссылок на торрент-файлы, которые содержат только списки хеш-сумм, убедительная просьба с жалобами обращаться напрямую к пользователю. Файлы для обмена на трекере предоставлены пользователями сайта, и администрация не несёт ответственности за их содержание. Просьба не заливать файлы, защищенные авторскими правами, а также файлы нелегального содержания!


    _________________
    [Профиль] [ЛС]
    Показать сообщения:    
    Ответить на тему

    Текущее время: Сегодня, в 22:37

    Часовой пояс: GMT + 2



    Вы не можете начинать темы
    Вы не можете отвечать на сообщения
    Вы не можете редактировать свои сообщения
    Вы не можете удалять свои сообщения
    Вы не можете голосовать в опросах
    Вы не можете прикреплять файлы к сообщениям
    Вы не можете скачивать файлы