BitTorrentTracker PerecTracker.org
BitTorrentTracker PerecTracker.org
    
Регистрация  ·  Вход
 
 · 
Забыли пароль?

  • Текс / Tex (Тим Хантер / Tim Hunter) [1982, США, драма, WEB-DL 1080p] Sub Rus, Eng + Original Eng

    Ответить на тему
     
    Автор Сообщение

    Flirldrerve

    Создавать темы 05-Янв-2016 23:55

           

    [Цитировать]

    Текс / Tex
    Страна: США
    Студия: Walt Disney Productions
    Жанр: драма
    Год выпуска: 1982
    Продолжительность: 01:43:03
    Перевод: Субтитры keastwood
    Cубтитры: русские, английские
    Оригинальная аудиодорожка: английский
    Режиссер: Тим Хантер / Tim Hunter
    В ролях: Мэтт Диллон, Джим Метцлер, Мег Тилли, Билл МакКинни, Фрэнсис Ли МакКейн, Бен Джонсон, Эмилио Эстевес, Джек Тибо, Желько Иванек, Том Вирту
    Описание: По одноименному роману Сьюзан Элойзы Хинтон.
    Пятнадцатилетний Текс и его старший брат Мейсон живут в небольшом городке. Их мать давно умерла, а отец подолгу отсутствует дома, и на Мейсона фактически легло воспитание Текса. Текс влюблен в соседскую девушку Джеми, сестру своего лучшего друга Джонни. Мейсон, звезда местной баскетбольной команды изо всех сил старается получить стипендию и уехать учиться в колледже...

    Кинопоиск
    Sample
    Тип релиза: WEB-DL 1080p
    Контейнер: MKV
    Видео: MPEG4 AVC Video, H264, 16:9, 1916x1036, 23.976 fps, 4942 kbps
    Аудио: English (AC3, 2 ch, 192 kbps, 16 bits, 48.0 KHz) - оригинал
    Формат субтитров: softsub (SRT)

    MediaInfo

    General
    Unique ID : 237910618583660037854652058137891840275 (0xB2FBEB1F0065A3B8926AC28772AA2113)
    Complete name : L:\Tex 1982 WEB-DL 1080p.mkv
    Format : Matroska
    Format version : Version 4 / Version 2
    File size : 3.77 GiB
    Duration : 1h 43mn
    Overall bit rate : 5 238 Kbps
    Encoded date : UTC 2015-12-06 23:08:13
    Writing application : mkvmerge v6.1.0 ('Old Devil') built on Mar 2 2013 14:32:37
    Writing library : libebml v1.3.0 + libmatroska v1.4.0
    Video
    ID : 1
    Format : AVC
    Format/Info : Advanced Video Codec
    Format profile : High@L4.0
    Format settings, CABAC : Yes
    Format settings, ReFrames : 4 frames
    Codec ID : V_MPEG4/ISO/AVC
    Duration : 1h 43mn
    Bit rate : 4 942 Kbps
    Width : 1 916 pixels
    Height : 1 036 pixels
    Display aspect ratio : 1.85:1
    Frame rate mode : Constant
    Frame rate : 23.976 fps
    Color space : YUV
    Chroma subsampling : 4:2:0
    Bit depth : 8 bits
    Scan type : Progressive
    Bits/(Pixel*Frame) : 0.104
    Stream size : 3.56 GiB (94%)
    Language : English
    Default : Yes
    Forced : No
    Color primaries : BT.709
    Transfer characteristics : BT.709
    Matrix coefficients : BT.709
    Audio
    ID : 2
    Format : AC-3
    Format/Info : Audio Coding 3
    Mode extension : CM (complete main)
    Format settings, Endianness : Big
    Codec ID : A_AC3
    Duration : 1h 43mn
    Bit rate mode : Constant
    Bit rate : 192 Kbps
    Channel count : 2 channels
    Channel positions : Front: L R
    Sampling rate : 48.0 KHz
    Bit depth : 16 bits
    Compression mode : Lossy
    Stream size : 142 MiB (4%)
    Language : English
    Default : Yes
    Forced : No
    Text #1
    ID : 3
    Format : UTF-8
    Codec ID : S_TEXT/UTF8
    Codec ID/Info : UTF-8 Plain Text
    Title : keastwood
    Language : Russian
    Default : Yes
    Forced : Yes
    Text #2
    ID : 4
    Format : UTF-8
    Codec ID : S_TEXT/UTF8
    Codec ID/Info : UTF-8 Plain Text
    Language : English
    Default : No
    Forced : No

    Скриншоты

    Скачать .torrent

    Скачать торрент-файл бесплатно и на максимальной скорости!

    Как скачивать? · Что такое торрент? · Рейтинг и ограничения

    !ВНИМАНИЕ!
    Сайт не распространяет и не хранит электронные версии произведений, а занимается лишь лишь предоставлением доступа к создаваемому пользователями каталогу ссылок на торрент-файлы, которые содержат только списки хеш-сумм, убедительная просьба с жалобами обращаться напрямую к пользователю. Файлы для обмена на трекере предоставлены пользователями сайта, и администрация не несёт ответственности за их содержание. Просьба не заливать файлы, защищенные авторскими правами, а также файлы нелегального содержания!


    _________________
    [Профиль] [ЛС]
    Показать сообщения:    
    Ответить на тему

    Текущее время: Сегодня, в 20:58

    Часовой пояс: GMT + 2



    Вы не можете начинать темы
    Вы не можете отвечать на сообщения
    Вы не можете редактировать свои сообщения
    Вы не можете удалять свои сообщения
    Вы не можете голосовать в опросах
    Вы не можете прикреплять файлы к сообщениям
    Вы не можете скачивать файлы