BitTorrentTracker PerecTracker.org
BitTorrentTracker PerecTracker.org
    
Регистрация  ·  Вход
 
 · 
Забыли пароль?

  • Скажи, что это не так / Say It Isn\'t So (Джеймс Б. Роджерс / James B. Rogers) [2001, США, мелодрама, комедия, WEB-DL 1080p] MVO (R5) + DVO (Лазер Видео) + Ukr (ТЕТ) + Original Eng + Sub (Rus, Eng)

    Ответить на тему
     
    Автор Сообщение

    Flirldrerve

    Создавать темы 05-Янв-2016 23:55

           

    [Цитировать]

    Скажи, что это не так / Say It Isn't So-Год выпуска: 2001
    Страна: США
    Студия: Twentieth Century Fox Film Corporation
    Жанр: мелодрама, комедия
    Продолжительность: 01:35:46
    Перевод:
    • Профессиональный (многоголосый закадровый) R5 / Двадцатый Век Фокс СНГ
    • Профессиональный (двухголосый закадровый) Лазер Видео |VHS|
    Cубтитры: русские, английские
    Оригинальная аудиодорожка: английский
    -Режиссер: Джеймс Б. Роджерс / James B. Rogers-В ролях: Крис Клейн, Хэзер Грэм, Орландо Джонс, Салли Филд, Ричард Дженкинс, Джон Ротмен, Джек Плотник, Эдди Сибриан, Марк Пеллегрино, Брент Хинкли и другие.-Роли озвучивали:
    • R5: Сергей Быстрицкий, Александр Быков, Виктор Петров, Наталья Гурзо.
    • Лазер Видео: Мария Овчиникова, Сергей Чекан.
    -Описание: Наконец-то в жизни молодого и честного Гила Ноубла (Крис Клейн) всё налаживается: он получил работу, которая ему нравится; он собирается жениться на Джо (Хизер Грэм), девушке о которой мечтал; и он всего в шаге от того, чтобы найти своих биологических родителей. Но неожиданно всё рушится. Год спустя, потеряв работу и подругу, Гил решает вернуть Джо и пустить свою жизнь в прежнее русло. Но дело в том, что за время разлуки Джо обручилась с другим и её состоятельный жених и ориентированная на карьеру мать (Салли Филд) не собираются отдавать Джо без боя. В возникшей неразберихе герой фильма постоянно попадает в нелепые и смешные ситуации, а всё ради того, чтобы вернуть сердце любимой.-РЕЛИЗ ОТ: V.SERIJ2013-Спасибо Pigy, Тарантинычу за извлечение аудиодорожек и субтитров с DVD-издания Двадцатый Век Фокс СНГ, Fikaloid за оцифровку VHS-издания Лазер Видео, OlegCena за запись с украинского телеканала ТЕТ и v.serij2013 (т.е., мне) за обработку и сведение.-Качество: WEB-DL 1080p
    Формат: MKV
    Видео кодек: H.264
    Аудио кодек: AC3
    Видео: H.264, 1918x1080 (16:9), 23.976 fps, ~5324 kbps, 0.107 bit/pixel
    Аудио:
    • русская |R5|: AC3, 48 kHz, 6 ch, 384 kbps
      русская |Лазер Видео|: AC3, 48 kHz, 2 ch, 192 kbps
    • украинская |ТЕТ|: AC3, 48 kHz, 2 ch, 192 kbps
    • английская |Оригинал|: AC3, 48 kHz, 6 ch, 384 kbps
    -Сэмпл \ Кинопоиск-

    Скриншоты

    Media Info

    General
    Unique ID                                : 228984785938308423476463038554528978060 (0xAC44DD98462DE1359E607428CC52948C)
    Complete name                            : E:\Video\HD\Movies (HD)\Say It Isn't So (2001) (WEB-DL 1080p).mkv
    Format                                   : Matroska
    Format version                           : Version 4 / Version 2
    File size                                : 4.42 GiB
    Duration                                 : 1h 35mn
    Overall bit rate                         : 6 608 Kbps
    Movie name                               : Say It Isn't So (2001) (WEB-DL | 1080p | v.serij2013)
    Encoded date                             : UTC 2015-12-18 09:00:35
    Writing application                      : mkvmerge v8.2.0 ('World of Adventure') 32bit
    Writing library                          : libebml v1.3.1 + libmatroska v1.4.2
    DURATION                                 : 01:35:16.207000000
    NUMBER_OF_FRAMES                         : 1099
    NUMBER_OF_BYTES                          : 64068
    _STATISTICS_WRITING_APP                  : mkvmerge v8.2.0 ('World of Adventure') 32bit
    _STATISTICS_WRITING_DATE_UTC             : 2015-12-18 09:00:35
    _STATISTICS_TAGS                         : BPS DURATION NUMBER_OF_FRAMES NUMBER_OF_BYTES
    Video
    ID                                       : 1
    Format                                   : AVC
    Format/Info                              : Advanced Video Codec
    Format profile                           : High@L4.0
    Format settings, CABAC                   : Yes
    Format settings, ReFrames                : 4 frames
    Codec ID                                 : V_MPEG4/ISO/AVC
    Duration                                 : 1h 35mn
    Bit rate                                 : 5 324 Kbps
    Width                                    : 1 918 pixels
    Height                                   : 1 080 pixels
    Display aspect ratio                     : 16:9
    Frame rate mode                          : Constant
    Frame rate                               : 23.976 fps
    Color space                              : YUV
    Chroma subsampling                       : 4:2:0
    Bit depth                                : 8 bits
    Scan type                                : Progressive
    Bits/(Pixel*Frame)                       : 0.107
    Stream size                              : 3.56 GiB (81%)
    Language                                 : English
    Default                                  : Yes
    Forced                                   : No
    Color primaries                          : BT.709
    Transfer characteristics                 : BT.709
    Matrix coefficients                      : BT.709
    Audio #1
    ID                                       : 2
    Format                                   : AC-3
    Format/Info                              : Audio Coding 3
    Mode extension                           : CM (complete main)
    Format settings, Endianness              : Big
    Codec ID                                 : A_AC3
    Duration                                 : 1h 35mn
    Bit rate mode                            : Constant
    Bit rate                                 : 384 Kbps
    Channel(s)                               : 6 channels
    Channel positions                        : Front: L C R, Side: L R, LFE
    Sampling rate                            : 48.0 KHz
    Bit depth                                : 16 bits
    Compression mode                         : Lossy
    Stream size                              : 263 MiB (6%)
    Title                                    : MVO (R5 / Двадцатый Век Фокс СНГ)
    Language                                 : Russian
    Default                                  : Yes
    Forced                                   : No
    Audio #2
    ID                                       : 3
    Format                                   : AC-3
    Format/Info                              : Audio Coding 3
    Mode extension                           : CM (complete main)
    Format settings, Endianness              : Big
    Codec ID                                 : A_AC3
    Duration                                 : 1h 35mn
    Bit rate mode                            : Constant
    Bit rate                                 : 192 Kbps
    Channel(s)                               : 2 channels
    Channel positions                        : Front: L R
    Sampling rate                            : 48.0 KHz
    Bit depth                                : 16 bits
    Compression mode                         : Lossy
    Stream size                              : 132 MiB (3%)
    Title                                    : DVO (Лазер Видео)
    Language                                 : Russian
    Default                                  : No
    Forced                                   : No
    Audio #3
    ID                                       : 4
    Format                                   : AC-3
    Format/Info                              : Audio Coding 3
    Mode extension                           : CM (complete main)
    Format settings, Endianness              : Big
    Codec ID                                 : A_AC3
    Duration                                 : 1h 35mn
    Bit rate mode                            : Constant
    Bit rate                                 : 192 Kbps
    Channel(s)                               : 2 channels
    Channel positions                        : Front: L R
    Sampling rate                            : 48.0 KHz
    Bit depth                                : 16 bits
    Compression mode                         : Lossy
    Stream size                              : 132 MiB (3%)
    Title                                    : DVO (ТЕТ)
    Language                                 : Ukrainian
    Default                                  : No
    Forced                                   : No
    Audio #4
    ID                                       : 5
    Format                                   : AC-3
    Format/Info                              : Audio Coding 3
    Mode extension                           : CM (complete main)
    Format settings, Endianness              : Big
    Codec ID                                 : A_AC3
    Duration                                 : 1h 35mn
    Bit rate mode                            : Constant
    Bit rate                                 : 384 Kbps
    Channel(s)                               : 6 channels
    Channel positions                        : Front: L C R, Side: L R, LFE
    Sampling rate                            : 48.0 KHz
    Bit depth                                : 16 bits
    Compression mode                         : Lossy
    Stream size                              : 263 MiB (6%)
    Title                                    : Original
    Language                                 : English
    Default                                  : No
    Forced                                   : No
    Text #1
    ID                                       : 6
    Format                                   : UTF-8
    Codec ID                                 : S_TEXT/UTF8
    Codec ID/Info                            : UTF-8 Plain Text
    Title                                    : R5 / Двадцатый Век Фокс СНГ (RuFilms)
    Language                                 : Russian
    Default                                  : No
    Forced                                   : No
    Text #2
    ID                                       : 7
    Format                                   : UTF-8
    Codec ID                                 : S_TEXT/UTF8
    Codec ID/Info                            : UTF-8 Plain Text
    Title                                    : Original
    Language                                 : English
    Default                                  : No
    Forced                                   : No
    Menu
    00:00:00.000                             : en:Main Titles
    00:02:40.000                             : en:Dinner at Larry's
    00:06:51.000                             : en:Jo Wingfield
    00:16:00.000                             : en:Detective Vic
    00:17:13.000                             : en:Falling in Love
    00:23:47.000                             : en:Gilly's Mother
    00:25:28.000                             : en:16 Months Later
    00:30:58.000                             : en:Leon Pitofsky
    00:32:35.000                             : en:On the Road
    00:41:33.000                             : en:Jack Mitchelson
    00:49:17.000                             : en:Back in Beaver
    00:58:09.000                             : en:Jack Means Trouble
    01:02:00.000                             : en:A Message for Jo
    01:06:35.000                             : en:Mental Care
    01:11:08.000                             : en:Go Get Your Woman
    01:16:43.000                             : en:The Wedding
    01:21:50.000                             : en:The Truth Comes Out
    01:25:16.000                             : en:The Ghost of Gilly
    01:29:22.000                             : en:A Happy Ending
    01:30:53.000                             : en:End Titles
    -
    Скачать .torrent

    Скачать торрент-файл бесплатно и на максимальной скорости!

    Как скачивать? · Что такое торрент? · Рейтинг и ограничения

    !ВНИМАНИЕ!
    Сайт не распространяет и не хранит электронные версии произведений, а занимается лишь лишь предоставлением доступа к создаваемому пользователями каталогу ссылок на торрент-файлы, которые содержат только списки хеш-сумм, убедительная просьба с жалобами обращаться напрямую к пользователю. Файлы для обмена на трекере предоставлены пользователями сайта, и администрация не несёт ответственности за их содержание. Просьба не заливать файлы, защищенные авторскими правами, а также файлы нелегального содержания!


    _________________
    [Профиль] [ЛС]
    Показать сообщения:    
    Ответить на тему

    Текущее время: Сегодня, в 22:42

    Часовой пояс: GMT + 2



    Вы не можете начинать темы
    Вы не можете отвечать на сообщения
    Вы не можете редактировать свои сообщения
    Вы не можете удалять свои сообщения
    Вы не можете голосовать в опросах
    Вы не можете прикреплять файлы к сообщениям
    Вы не можете скачивать файлы