BitTorrentTracker PerecTracker.org
BitTorrentTracker PerecTracker.org
    
Регистрация  ·  Вход
 
 · 
Забыли пароль?

  • Транс / Trance (Дэнни Бойл / Danny Boyle) [2013, триллер, драма, криминал, детектив, BD>DVD5] DUB + Original + Sub Rus, Eng

    Ответить на тему
     
    Автор Сообщение

    Columb

    Создавать темы 26-Авг-2013 10:06

           

    [Цитировать]

    Транс
    Trance
    -«В подсознании. Вне закона.»-Страна: Великобритания ,Франция
    Год выпуска: 2013
    Жанр: триллер, драма, криминал, детектив
    Продолжительность: 01:41:13--Перевод: Профессиональный (дублированный)
    Cубтитры: Русские, Английские
    Оригинальная аудиодорожка: Английская--Режиссер:
    Дэнни Бойл / Danny Boyle
    В ролях:
    Джеймс МакЭвой (Simon), Венсан Кассель (Franck), Розарио Доусон (Elizabeth), Дэнни Сапани (Nate), Мэттью Кросс (Dominic), Таппенс Мидлтон (Young Woman in Blue Car), Саймон Кунц (Surgeon), Майкл Шэйффер (Security Guard #1), Вахаб Ахмед Шейх (Riz), Марк Полтимор (Francis Lemaitre)--Описание:Аукционер Саймон не в силах противостоять искушению — вступает в сговор с бандой грабителей и организует похищение уникального лота стоимостью в миллионы долларов. Однако налет оканчивается не совсем так, как он предполагал вначале. Аукционера оглушают ударом тупого предмета по голове, в результате которого он теряет какие бы то ни было воспоминания о том, что произошло.
    Разумеется, он также забывает, куда спрятал ценную картину. Пытками добиться ответа от ничего не понимающего Саймона не удается. Тогда главарь банды решает нанять психотерапевта, чтобы она смогла выудить ценную информацию из поврежденного мозга заложника. По мере того, как девушка пробивается сквозь нейронную защиту, ставки растут как на дрожжах. Границы между страстью и жестокостью, реальностью и вымыслом тускнеют и вовсе готовы испариться. В конечном итоге становится не ясно — кто же у кого в заложниках?
    ----Доп. информация: Исходиник взятый из сети. Спасибо AlexD555 за инструкцию! Так же спасибо товарищам samsonq и ZVNV.--Меню: Английское, частично анимированное, озвученое
    Сэмпл: http://multi-up.com/896936-Тип релиза: DVD5
    Контейнер: DVD-Video
    Видео: NTSC 16:9 (720x480) VBR, Auto Letterboxed
    Аудио 1: Russian (Dolby AC3, 5.1 ch, 448 кб/с) - дублированный |Blu-Ray|
    Аудио 2: English (Dolby AC3, 5.1 ch, 448 кб/с) - оригиналРелиз от:

    MediaInfo

    General
    Complete name : D:\Фильмы\Trans.2013.DVD5\VIDEO_TS\VTS_01_1.VOB
    Format : MPEG-PS
    File size : 1 024 MiB
    Duration : 21mn 46s
    Overall bit rate : 6 572 Kbps
    Video
    ID : 224 (0xE0)
    Format : MPEG Video
    Format version : Version 2
    Format profile : Main@Main
    Format settings, BVOP : Yes
    Format settings, Matrix : Custom
    Duration : 21mn 46s
    Bit rate mode : Variable
    Bit rate : 5 546 Kbps
    Width : 720 pixels
    Height : 480 pixels
    Display aspect ratio : 2.35:1
    Frame rate : 23.976 fps
    Standard : NTSC
    Color space : YUV
    Chroma subsampling : 4:2:0
    Bit depth : 8 bits
    Scan type : Progressive
    Scan order : 2:3 Pulldown
    Compression mode : Lossy
    Bits/(Pixel*Frame) : 0.669
    Stream size : 864 MiB (84%)
    Audio #1
    ID : 189 (0xBD)-128 (0x80)
    Format : AC-3
    Format/Info : Audio Coding 3
    Mode extension : CM (complete main)
    Muxing mode : DVD-Video
    Duration : 21mn 46s
    Bit rate mode : Constant
    Bit rate : 448 Kbps
    Channel(s) : 6 channels
    Channel positions : Front: L C R, Side: L R, LFE
    Sampling rate : 48.0 KHz
    Bit depth : 16 bits
    Compression mode : Lossy
    Stream size : 69.8 MiB (7%)
    Audio #2
    ID : 189 (0xBD)-129 (0x81)
    Format : AC-3
    Format/Info : Audio Coding 3
    Mode extension : CM (complete main)
    Muxing mode : DVD-Video
    Duration : 21mn 46s
    Bit rate mode : Constant
    Bit rate : 448 Kbps
    Channel(s) : 6 channels
    Channel positions : Front: L C R, Side: L R, LFE
    Sampling rate : 48.0 KHz
    Bit depth : 16 bits
    Compression mode : Lossy
    Stream size : 69.8 MiB (7%)
    Text #1
    ID : 189 (0xBD)-32 (0x20)
    Format : RLE
    Format/Info : Run-length encoding
    Muxing mode : DVD-Video
    Text #2
    ID : 189 (0xBD)-33 (0x21)
    Format : RLE
    Format/Info : Run-length encoding
    Muxing mode : DVD-Video
    Menu

    DVDInfo

    Title: Trans.2013.DVD5
    Size: 4.36 Gb ( 4 571 794,00 KBytes ) - DVD-5
    Enabled regions: 1, 2, 3, 4, 5, 6, 7, 8
    VTS_01 :
    Play Length: 01:41:13+{00:00:00}
    Video: NTSC 16:9 (720x480) VBR, Auto Letterboxed
    Audio:
    Russian, AC3, 3/2 (L,C,R,SL,SR)+LFE ch, 448 kbps, Delay 0 mSec
    English, AC3, 3/2 (L,C,R,SL,SR)+LFE ch, 448 kbps, Delay 0 mSec
    Subtitles:
    Russian
    English
    VTS_02 :
    Play Length: 00:00:01
    Video: NTSC 16:9 (720x480) VBR, Auto Pan&Scan

    Программы, используемые при создании релиза

    Видео
    ProCoder 3 - конвертация видео
    AviSynth - обработка видео
    DGDecodeNV - индексирование
    Програмы для разборки ремукса/DVD
    tsMuxeR - разборка ремукса
    Работа со звуком
    TranzcodeGUI, BeSweet - извлечение WAV
    Sonic Foundry Soft Encode - конвертация из формата WAV в AC3
    Работа с меню и реавторинг
    DVD-lab PRO 2 - реавторинг диска
    Adobe Photoshop - редактирование меню
    --

    Скриншоты меню

    Скриншоты

    Скачать .torrent

    Скачать торрент-файл бесплатно и на максимальной скорости!

    Как скачивать? · Что такое торрент? · Рейтинг и ограничения

    !ВНИМАНИЕ!
    Сайт не распространяет и не хранит электронные версии произведений, а занимается лишь лишь предоставлением доступа к создаваемому пользователями каталогу ссылок на торрент-файлы, которые содержат только списки хеш-сумм, убедительная просьба с жалобами обращаться напрямую к пользователю. Файлы для обмена на трекере предоставлены пользователями сайта, и администрация не несёт ответственности за их содержание. Просьба не заливать файлы, защищенные авторскими правами, а также файлы нелегального содержания!

    [Профиль] [ЛС]
    Показать сообщения:    
    Ответить на тему

    Текущее время: Сегодня, в 12:05

    Часовой пояс: GMT + 2



    Вы не можете начинать темы
    Вы не можете отвечать на сообщения
    Вы не можете редактировать свои сообщения
    Вы не можете удалять свои сообщения
    Вы не можете голосовать в опросах
    Вы не можете прикреплять файлы к сообщениям
    Вы не можете скачивать файлы