BitTorrentTracker PerecTracker.org
BitTorrentTracker PerecTracker.org
    
Регистрация  ·  Вход
 
 · 
Забыли пароль?

  • Один дома 3 / Home Alone 3 (Раджа Госнелл / Raja Gosnell) [1997, США, комедия, семейный, WEB-DL 1080p] 3x MVO + DVO + 3x AVO (Живов, Визгунов, Латышев) + Sub Rus, Eng + Original Eng

    Ответить на тему
     
    Автор Сообщение

    Flirldrerve

    Создавать темы 05-Янв-2016 19:50

           

    [Цитировать]

    Один дома 3 / Home Alone 3
    Страна: США
    Студия: 20th Century Fox
    Жанр: Комедия, семейный
    Год выпуска: 1997
    Продолжительность: 01:42:27
    Перевод 1: Профессиональный (двухголосый закадровый) - премьер видео фильм
    Перевод 2: Профессиональный (многоголосый закадровый) - 1 канал
    Перевод 3: Профессиональный (многоголосый закадровый) - 20th century fox
    Перевод 4: Профессиональный (многоголосый закадровый) - (вероятно) гемини
    Перевод 5: Авторский (одноголосый закадровый) юрий живов
    Перевод 6: Авторский (одноголосый закадровый) сергей визгунов
    Перевод 7: Авторский (одноголосый закадровый) максим латышев
    Cубтитры: русские, английские
    Оригинальная аудиодорожка: английский
    Режиссер: Раджа Госнелл / Raja Gosnell
    В ролях: Алекс Д. Линц, Олек Крупа, Риа Килстедт, Ленни фон Долен, Дэвид Торнтон, Хэвиленд Моррис, Кевин Килнер, Мэриэн Селдес, Сет Смит, Скарлетт Йоханссон
    Описание: Трое мужчин и женщина купили украденную для них новейшую микросхему, способную нейтрализовать всю систему противокосмической обороны. Положили ее в игрушечную машину, ее — в пакет с надписью «Parisian». В аэропорту обнаружилось, что в пакете игрушки нет, а вокруг ходят люди точно с такими же пакетами. Стали искать. В результате поисков пришлось лететь за пакетом в Чикаго. Самые догадливые зрители уже, наверное, догадались, в чей дом привезла пожилая дама пакет с игрушкой. Ну, конечно же, туда, где живет маленький милый мальчик. Все знакомо? Да, только на этот раз вместо незадачливых бедолаг-неудачников против мальчугана, заболевшего скарлатиной и оставшегося дома, выступают настоящие профессионалы, люди очень и очень опасные. А другие серьезные люди, у которых микросхема пропала, тоже сидеть без дела не намерены.
    Сэмпл: http://multi-up.com/1081087
    Тип релиза: WEB-DL 1080p
    Контейнер: MKV
    Видео: MPEG4 AVC Video, H264, 16:9, 1916x1074, 23.976 fps, 5 048 Kbps
    Аудио №1: Rus; AC3 2.0; 192 Kbps; 48 kHz; DVO (премьер видео фильм)
    Аудио №2: Rus; AC3 2.0; 192 Kbps; 48 kHz; MVO (1 канал)
    Аудио №3: Rus; AC3 5.1; 384 Kbps; 48 kHz; MVO (20th century fox)
    Аудио №4: Rus; AC3 5.1; 384 Kbps; 48 kHz; MVO ((вероятно) гемини)
    Аудио №5: Rus; AC3 2.0; 192 Kbps; 48 kHz; AVO (юрий живов)
    Аудио №6: Rus; AC3 2.0; 192 Kbps; 48 kHz; AVO (сергей визгунов)
    Аудио №7: Rus; AC3 2.0; 192 Kbps; 48 kHz; AVO (максим латышев)
    Аудио №8: Eng; AC3 5.1; 384 kbps; 48.0 KHz;
    Субтитры №1: Rus; SRT
    Субтитры №2: Eng; SRT
    Навигация по главам: есть

    Доп. информация

    премьер видео фильм отсюда
    1 канал отсюда
    живов и визгунов отсюда
    латышев отсюда

    Скриншоты

    MediaInfo

    General
    Unique ID : 218854003673219599680715150641818361867 (0xA4A5BF772EB05B75858C010A2B79E00B)
    Complete name : H:\Home.Alone.3.1997.1080p.WEB-DL.H264.mkv
    Format : Matroska
    Format version : Version 4 / Version 2
    File size : 5.23 GiB
    Duration : 1h 42mn
    Overall bit rate : 7 305 Kbps
    Encoded date : UTC 2015-12-25 05:17:49
    Writing application : mkvmerge v8.2.0 ('World of Adventure') 64bit
    Writing library : libebml v1.3.1 + libmatroska v1.4.2
    Attachements : poster
    DURATION : 01:41:46.774000000
    NUMBER_OF_FRAMES : 864
    NUMBER_OF_BYTES : 45970
    _STATISTICS_WRITING_APP : mkvmerge v8.2.0 ('World of Adventure') 64bit
    _STATISTICS_WRITING_DATE_UT : 2015-12-25 05:17:49
    _STATISTICS_TAGS : BPS DURATION NUMBER_OF_FRAMES
    Video
    ID : 1
    Format : AVC
    Format/Info : Advanced Video Codec
    Format profile : High@L4
    Format settings, CABAC : Yes
    Format settings, ReFrames : 4 frames
    Codec ID : V_MPEG4/ISO/AVC
    Duration : 1h 42mn
    Bit rate : 5 048 Kbps
    Width : 1 916 pixels
    Height : 1 074 pixels
    Display aspect ratio : 16:9
    Frame rate mode : Constant
    Frame rate : 23.976 fps
    Color space : YUV
    Chroma subsampling : 4:2:0
    Bit depth : 8 bits
    Scan type : Progressive
    Bits/(Pixel*Frame) : 0.102
    Stream size : 3.61 GiB (69%)
    Language : English
    Default : Yes
    Forced : No
    Color range : Limited
    Color primaries : BT.709
    Transfer characteristics : BT.709
    Matrix coefficients : BT.709
    Audio #1
    ID : 2
    Format : AC-3
    Format/Info : Audio Coding 3
    Format profile : Dolby Digital
    Mode extension : CM (complete main)
    Format settings, Endianness : Big
    Codec ID : A_AC3
    Duration : 1h 42mn
    Bit rate mode : Constant
    Bit rate : 192 Kbps
    Channel(s) : 2 channels
    Channel positions : Front: L R
    Sampling rate : 48.0 KHz
    Compression mode : Lossy
    Stream size : 141 MiB (3%)
    Title : премьер видео фильм
    Language : Russian
    Default : No
    Forced : No
    Audio #2
    ID : 3
    Format : AC-3
    Format/Info : Audio Coding 3
    Format profile : Dolby Digital
    Mode extension : CM (complete main)
    Format settings, Endianness : Big
    Codec ID : A_AC3
    Duration : 1h 42mn
    Bit rate mode : Constant
    Bit rate : 192 Kbps
    Channel(s) : 2 channels
    Channel positions : Front: L R
    Sampling rate : 48.0 KHz
    Compression mode : Lossy
    Stream size : 141 MiB (3%)
    Title : первый канал
    Language : Russian
    Default : No
    Forced : No
    Audio #3
    ID : 4
    Format : AC-3
    Format/Info : Audio Coding 3
    Mode extension : CM (complete main)
    Format settings, Endianness : Big
    Codec ID : A_AC3
    Duration : 1h 42mn
    Bit rate mode : Constant
    Bit rate : 384 Kbps
    Channel(s) : 6 channels
    Channel positions : Front: L C R, Side: L R, LFE
    Sampling rate : 48.0 KHz
    Compression mode : Lossy
    Stream size : 281 MiB (5%)
    Title : 20th century fox
    Language : Russian
    Default : No
    Forced : No
    Audio #4
    ID : 5
    Format : AC-3
    Format/Info : Audio Coding 3
    Mode extension : CM (complete main)
    Format settings, Endianness : Big
    Codec ID : A_AC3
    Duration : 1h 42mn
    Bit rate mode : Constant
    Bit rate : 384 Kbps
    Channel(s) : 6 channels
    Channel positions : Front: L C R, Side: L R, LFE
    Sampling rate : 48.0 KHz
    Compression mode : Lossy
    Stream size : 281 MiB (5%)
    Title : mvo
    Language : Russian
    Default : No
    Forced : No
    Audio #5
    ID : 6
    Format : AC-3
    Format/Info : Audio Coding 3
    Format profile : Dolby Digital
    Mode extension : CM (complete main)
    Format settings, Endianness : Big
    Codec ID : A_AC3
    Duration : 1h 42mn
    Bit rate mode : Constant
    Bit rate : 192 Kbps
    Channel(s) : 2 channels
    Channel positions : Front: L R
    Sampling rate : 48.0 KHz
    Compression mode : Lossy
    Stream size : 141 MiB (3%)
    Title : юрий живов
    Language : Russian
    Default : No
    Forced : No
    Audio #6
    ID : 7
    Format : AC-3
    Format/Info : Audio Coding 3
    Format profile : Dolby Digital
    Mode extension : CM (complete main)
    Format settings, Endianness : Big
    Codec ID : A_AC3
    Duration : 1h 42mn
    Bit rate mode : Constant
    Bit rate : 192 Kbps
    Channel(s) : 2 channels
    Channel positions : Front: L R
    Sampling rate : 48.0 KHz
    Compression mode : Lossy
    Stream size : 141 MiB (3%)
    Title : сергей визгунов
    Language : Russian
    Default : No
    Forced : No
    Audio #7
    ID : 8
    Format : AC-3
    Format/Info : Audio Coding 3
    Format profile : Dolby Digital
    Mode extension : CM (complete main)
    Format settings, Endianness : Big
    Codec ID : A_AC3
    Duration : 1h 42mn
    Bit rate mode : Constant
    Bit rate : 192 Kbps
    Channel(s) : 2 channels
    Channel positions : Front: L R
    Sampling rate : 48.0 KHz
    Compression mode : Lossy
    Stream size : 141 MiB (3%)
    Title : максим латышев
    Language : Russian
    Default : No
    Forced : No
    Audio #8
    ID : 9
    Format : AC-3
    Format/Info : Audio Coding 3
    Mode extension : CM (complete main)
    Format settings, Endianness : Big
    Codec ID : A_AC3
    Duration : 1h 42mn
    Bit rate mode : Constant
    Bit rate : 384 Kbps
    Channel(s) : 6 channels
    Channel positions : Front: L C R, Side: L R, LFE
    Sampling rate : 48.0 KHz
    Compression mode : Lossy
    Stream size : 281 MiB (5%)
    Language : English
    Default : No
    Forced : No
    Text #1
    ID : 10
    Format : UTF-8
    Codec ID : S_TEXT/UTF8
    Codec ID/Info : UTF-8 Plain Text
    Language : Russian
    Default : No
    Forced : No
    Text #2
    ID : 11
    Format : UTF-8
    Codec ID : S_TEXT/UTF8
    Codec ID/Info : UTF-8 Plain Text
    Language : English
    Default : No
    Forced : No
    Menu
    00:00:00.000 : en:The Missile Chip (Main Titles)
    00:04:21.000 : en:The Wrong Bag
    00:08:31.000 : en:Alex's Gift
    00:13:15.000 : en:Chicken Pox
    00:14:44.000 : en:The "Sick" Child
    00:20:51.000 : en:A Burglar!
    00:29:02.000 : en:Another False Alarm
    00:35:14.000 : en:The Mobile Unit
    00:41:55.000 : en:Get That Car!
    00:47:18.000 : en:The Secret in the Toy Car
    00:52:41.000 : en:Preparing for War
    00:55:36.000 : en:Freeing the Hostage
    01:00:47.000 : en:Getting Ready to Rumble
    01:04:36.000 : en:Some Electrifying Encounters
    01:09:58.000 : en:Attacked from All Sides
    01:19:42.000 : en:Where's That Kid?
    01:26:02.000 : en:Taking It Outside
    01:28:47.000 : en:Beaupre's Trap
    01:30:57.000 : en:The Bad Guys on Ice
    01:34:55.000 : en:Safe at Home
    01:36:33.000 : en:End Titles
    Скачать .torrent

    Скачать торрент-файл бесплатно и на максимальной скорости!

    Как скачивать? · Что такое торрент? · Рейтинг и ограничения

    !ВНИМАНИЕ!
    Сайт не распространяет и не хранит электронные версии произведений, а занимается лишь лишь предоставлением доступа к создаваемому пользователями каталогу ссылок на торрент-файлы, которые содержат только списки хеш-сумм, убедительная просьба с жалобами обращаться напрямую к пользователю. Файлы для обмена на трекере предоставлены пользователями сайта, и администрация не несёт ответственности за их содержание. Просьба не заливать файлы, защищенные авторскими правами, а также файлы нелегального содержания!


    _________________
    [Профиль] [ЛС]
    Показать сообщения:    
    Ответить на тему

    Текущее время: Сегодня, в 20:32

    Часовой пояс: GMT + 2



    Вы не можете начинать темы
    Вы не можете отвечать на сообщения
    Вы не можете редактировать свои сообщения
    Вы не можете удалять свои сообщения
    Вы не можете голосовать в опросах
    Вы не можете прикреплять файлы к сообщениям
    Вы не можете скачивать файлы