BitTorrentTracker PerecTracker.org
BitTorrentTracker PerecTracker.org
    
Регистрация  ·  Вход
 
 · 
Забыли пароль?

  • Охотники на гангстеров / Gangster Squad (Рубен Флейшер / Ruben Fleischer) [2013, США, Боевик, триллер, драма, криминал, BDRip] AVO (Володарский)

    Ответить на тему
     
    Автор Сообщение

    Columb

    Создавать темы 25-Авг-2013 15:33

           

    [Цитировать]

    Охотники на гангстеров / Gangster Squad
    «Ни имён. Ни закона. Ни жалости.»
    -Год выхода: 2013
    Выпущено: CША / Langley Park Productions, Lin Pictures, Village Roadshow Pictures
    Жанр: боевик, триллер, драма, криминал
    Продолжительность: 01:52:54
    Перевод: Авторский (одноголосый закадровый) Леонид Володарский
    Cубтитры: нет-Режиссер:
    Рубен Флейшер / Ruben Fleischer-В ролях:
    Джош Бролин (Sgt. John O'Mara), Райан Гослинг (Sgt. Jerry Wooters), Ник Нолти (Chief Parker), Эмма Стоун (Grace Faraday), Энтони Маки (Officer Coleman Harris), Джованни Рибизи (Officer Conway Keeler), Майкл Пенья (Officer Navidad Ramirez), Роберт Патрик (Officer Max Kennard), Шон Пенн (Mickey Cohen), Холт МакКэллани (Karl Lennox), Уэйд Уильямс (Rourke), Джеймс Хеберт (Mitch Racine)-Описание:
    Лос-Анджелес, 1949 год. Уроженец Бруклина, жестокий главарь банды Микки Коэн держит город в ежовых рукавицах, собирая «грязные» деньги от торговли наркотиками, оружием и проституции, и — если все пойдет, как надо, — к Западу от Чикаго мышь не пискнет без его ведома. Защищают его не только его же головорезы, но и находящиеся у него «на крючке» полиция и политики. Этого хватит, чтобы запугать даже самых смелых, закаленных улицей копов… кроме, пожалуй, небольшой тайной группы сотрудников полицейского департамента Лос-Анджелеса во главе с сержантом Джоном О’Мара и Джерри Вутерсом, которые объединились, чтобы попытаться уничтожить преступный мир Коэна.-|IMDB| КиноПоиск | Сэмпл |-Качество: BDRip [Gangster.Squad.2013.1080p.BluRay.AVC.DTS-HD.MA.5.1-LAZERS]
    Формат: AVI
    Видео: 720x304 (2.37:1), 23.976 fps, XviD build 73 ~1455 kbps avg, 0.28 bit/pixel
    Аудио: 48 kHz, AC3 Dolby Digital, 3/2 (L,C,R,l,r) + LFE ch, ~384.00 kbps avg-

    Скриншоты

    MediaInfo

    General
    Complete name                            : D:\Ohotniki_na_Gangsterov_2013_BDRip_AVO_Volodarskyi_by_Dalemake.avi
    Format                                   : AVI
    Format/Info                              : Audio Video Interleave
    File size                                : 1.46 GiB
    Duration                                 : 1h 52mn
    Overall bit rate                         : 1 849 Kbps
    Writing application                      : VirtualDubMod 1.5.10.3 | www.virtualdub-fr.org || (build 2550/release)
    Writing library                          : VirtualDubMod build 2550/release
    Video
    ID                                       : 0
    Format                                   : MPEG-4 Visual
    Format profile                           : Advanced Simple@L5
    Format settings, BVOP                    : 1
    Format settings, QPel                    : No
    Format settings, GMC                     : No warppoints
    Format settings, Matrix                  : Custom
    Codec ID                                 : XVID
    Codec ID/Hint                            : XviD
    Duration                                 : 1h 52mn
    Bit rate                                 : 1 456 Kbps
    Width                                    : 720 pixels
    Height                                   : 304 pixels
    Display aspect ratio                     : 2.35:1
    Frame rate                               : 23.976 fps
    Color space                              : YUV
    Chroma subsampling                       : 4:2:0
    Bit depth                                : 8 bits
    Scan type                                : Progressive
    Compression mode                         : Lossy
    Bits/(Pixel*Frame)                       : 0.277
    Stream size                              : 1.15 GiB (79%)
    Writing library                          : XviD 73
    Audio
    ID                                       : 1
    Format                                   : AC-3
    Format/Info                              : Audio Coding 3
    Mode extension                           : CM (complete main)
    Format settings, Endianness              : Big
    Codec ID                                 : 2000
    Duration                                 : 1h 52mn
    Bit rate mode                            : Constant
    Bit rate                                 : 384 Kbps
    Channel(s)                               : 6 channels
    Channel positions                        : Front: L C R, Side: L R, LFE
    Sampling rate                            : 48.0 KHz
    Bit depth                                : 16 bits
    Compression mode                         : Lossy
    Stream size                              : 310 MiB (21%)
    Alignment                                : Split accross interleaves
    Interleave, duration                     : 42 ms (1.00 video frame)
    Interleave, preload duration             : 500 ms
    -
    Цитата:

    За перевод Л. Володарского большое спасибо пользователям форума forum.hdtracker.org: audiolubitel, foxlight, Hattori Hanzo, shitman82, John Ryder, karantin66, KpucTo161, Maldivess, nimph, olegsoleg, Rolly Tyler, Vimann, ZeRoNe, denis_mgn_1987, -Джосс-, SavineX, Letyoha3, therox, Role, vadamk, dunhill200, Chistobaev, lexal, mamachucha66, Xerman13, Диммон, Schmulke, v111o, Denis2251..
    Скачать .torrent

    Скачать торрент-файл бесплатно и на максимальной скорости!

    Как скачивать? · Что такое торрент? · Рейтинг и ограничения

    !ВНИМАНИЕ!
    Сайт не распространяет и не хранит электронные версии произведений, а занимается лишь лишь предоставлением доступа к создаваемому пользователями каталогу ссылок на торрент-файлы, которые содержат только списки хеш-сумм, убедительная просьба с жалобами обращаться напрямую к пользователю. Файлы для обмена на трекере предоставлены пользователями сайта, и администрация не несёт ответственности за их содержание. Просьба не заливать файлы, защищенные авторскими правами, а также файлы нелегального содержания!

    [Профиль] [ЛС]

    -746

    Создавать темы 06-Янв-2014 00:57 (спустя 4 месяца 11 дней)

           

    Топик был перенесен из форума Зарубежные Фильмы (Новинки) в форум Фильмы 2011-2013

    -sasha2006 

    _________________
    Как бы ты высоко не летал, не забывай, с кем ты ползал..
     
    Показать сообщения:    
    Ответить на тему

    Текущее время: Сегодня, в 20:39

    Часовой пояс: GMT + 2



    Вы не можете начинать темы
    Вы не можете отвечать на сообщения
    Вы не можете редактировать свои сообщения
    Вы не можете удалять свои сообщения
    Вы не можете голосовать в опросах
    Вы не можете прикреплять файлы к сообщениям
    Вы не можете скачивать файлы