BitTorrentTracker PerecTracker.org
BitTorrentTracker PerecTracker.org
    
Регистрация  ·  Вход
 
 · 
Забыли пароль?

  • Жюль Верн. Невероятные путешествия. 800 лье вниз по Амазонке / Jules Verne\'s amazing journeys: 800 Leagues Down the Amazon (Жан-Пьер Жёне / Jean-Pierre Jeunet) [2001, Франция, Германия, приключения, DVDRip] MVO

    Ответить на тему
     
    Автор Сообщение

    rechyn

    Создавать темы 05-Янв-2016 15:45

           

    [Цитировать]

    Жюль Верн. Невероятные путешествия. 800 лье вниз по Амазонке
    Jules Verne's amazing journeys: 800 Leagues Down the Amazon


    Страна: Франция, Германия
    Жанр: приключения
    Продолжительность: 00:47:45
    Год выпуска: 2001
    Перевод: Профессиональный (многоголосый закадровый)
    Русские субтитры: нет

    Режиссёр: Жан-Пьер Жёне / Jean-Pierre Jeunet
    Описание: Благородный плантатор, которого несправедливо обвинили и приговорили к смертной казни, смог вырваться из тюрьмы и бежать. Теперь он вынужден скрываться под чужим именем и жить в постоянных скитаниях. Чтобы выдать замуж свою очаровательную дочь, плантатор и его приближенные, подвергая себя неминуемой опасности и рискуя жизнью, отправляются на плоту вниз по Амазонке к тому городу, где живут родители жениха. Пережив множество приключений, путешественники достигают пункта назначения, но отец невесты попадает в руки полиции. Есть только один способ спасти невиновного

    Качество: DVDRip
    Формат: AVI
    Видео: 624x480 (1.30:1), 25 fps, XviD build 73 ~1718 kbps avg, 0.23 bit/pixel
    Аудио: 48 kHz, AC3 Dolby Digital, 3/2 (L,C,R,l,r) + LFE ch, ~448 kbps
    Субтитры: отсутствуют

    Подробные технические данные

    ОбщееПолное имя : H:\800.Leagues.Down.the.Amazon.2001.dvdrip_[745]_[teko].aviФормат : AVIФормат/Информация : Audio Video InterleaveРазмер файла : 743 МбайтПродолжительность : 47 м.Общий поток : 2176 Кбит/секПрограмма кодирования : VirtualDubMod 1.5.10.3 | www.virtualdub-fr.org || (build 2550/release)Библиотека кодирования : VirtualDubMod build 2550/release
    ВидеоИдентификатор : 0Формат : MPEG-4 VisualПрофиль формата : Advanced Simple@L5Параметр BVOP формата : 2Параметр QPel формата : НетПараметр GMC формата : Без точки переходаПараметр матрицы формата : ВыборочнаяИдентификатор кодека : XVIDИдентификатор кодека/Подсказка : XviDПродолжительность : 47 м.Битрейт : 1718 Кбит/секШирина : 624 пикселяВысота : 480 пикселейСоотношение сторон : 4:3Частота кадров : 25,000 кадров/секЦветовое пространство : YUVСубдискретизация насыщенности : 4:2:0Битовая глубина : 8 битТип развёртки : ПрогрессивнаяМетод сжатия : С потерямиБит/(Пиксели*Кадры) : 0.229Размер потока : 587 Мбайт (79%)Библиотека кодирования : XviD 73
    АудиоИдентификатор : 1Формат : AC-3Формат/Информация : Audio Coding 3Расширение режима : CM (complete main)Параметр Endianness формата : BigИдентификатор кодека : 2000Продолжительность : 47 м.Вид битрейта : ПостоянныйБитрейт : 448 Кбит/секКаналы : 6 каналовРасположение каналов : Front: L C R, Side: L R, LFEЧастота : 48,0 КГцБитовая глубина : 16 битМетод сжатия : С потерямиРазмер потока : 153 Мбайт (21%)Выравнивание : Разделение по промежуткамПродолжительность промежутка : 40 мс. (1,00 видеокадр)Время предзагрузки промежутка : 500 мс.

    Скриншоты

    Релиз группы:

    -
    -
    Скачать .torrent

    Скачать торрент-файл бесплатно и на максимальной скорости!

    Как скачивать? · Что такое торрент? · Рейтинг и ограничения

    !ВНИМАНИЕ!
    Сайт не распространяет и не хранит электронные версии произведений, а занимается лишь лишь предоставлением доступа к создаваемому пользователями каталогу ссылок на торрент-файлы, которые содержат только списки хеш-сумм, убедительная просьба с жалобами обращаться напрямую к пользователю. Файлы для обмена на трекере предоставлены пользователями сайта, и администрация не несёт ответственности за их содержание. Просьба не заливать файлы, защищенные авторскими правами, а также файлы нелегального содержания!


    _________________
    [Профиль] [ЛС]
    Показать сообщения:    
    Ответить на тему

    Текущее время: Сегодня, в 18:17

    Часовой пояс: GMT + 2



    Вы не можете начинать темы
    Вы не можете отвечать на сообщения
    Вы не можете редактировать свои сообщения
    Вы не можете удалять свои сообщения
    Вы не можете голосовать в опросах
    Вы не можете прикреплять файлы к сообщениям
    Вы не можете скачивать файлы