BitTorrentTracker PerecTracker.org
BitTorrentTracker PerecTracker.org
    
Регистрация  ·  Вход
 
 · 
Забыли пароль?

  • Молодая гвардия / Сезон: 1 / Серии: 1 - 12 (12) (Леонид Пляскин) [2015, военная приключенческая драма, HDTVRip]

    Ответить на тему
     
    Автор Сообщение

    rechyn

    Создавать темы 05-Янв-2016 10:18

           

    [Цитировать]

    Молодая гвардияГод выпуска: 2015
    Производство: Россия, Профит
    Жанр: военная приключенческая драма
    Продолжительность: 00:50:00 серия
    Субтитры: нет
    Режиссёр: Леонид Пляскин
    В ролях: Никита Тезин, Катерина Шпица, Юрий Борисов (II), Вячеслав Чепурченко, Ирина Горбачева, Юрий Чурсин, Владислав Кузнецов, Виктор Хориняк, Полина Пушкарук, Сергей Яковлев (V), Илья Кожухарь, Карина Гондагсазян, Иван Решетняк, Алексей Вертков, Марцин Руй, Андрей Гусев, Николай Сердцев, Михаил Елисеев, Григорий Зельцер, Дмитрий Быковский-Ромашов, Сергей Яценюк, Руслан Барабанов, Анастасия Мытражик, Лариса Шахворостова, Ольга Лапшина, Евгения Дмитриева, Владимир Антоник, Ирина Яковлева, Тагир Рахимов, Роман Шмаков, Василий Миролюбов, Максим Сапрыкин (II), Сергей Карабань, Мария Троицкая, Илья Антоненко, Валерий Карпов (II), Вячеслав Евлантьев, Иван Мозговой, Максим Кошеваров, Ярослав Химченко, Сергей Куликов (II), Александр Строев (III), Светлана Улыбина, Вячеслав Ковалёв, Алексей Литвиненко (II), Андрей Лёвин, Николай Орловский, Андрей Анненский, Яак Принтс, Леонид Торкиани, Жорж Девдариани, Александр Дырин, Борис Цай, Александр Горбатов (II), Софья Озерова, Лидия Байрашевская, Виктория Даненкова
    Описание: Новый взгляд на одну из самых драматичных страниц Великой Отечественной Войны. Краснодон, 1942 год. Юные подпольщики для борьбы с карателями организуют свой отряд – «Молодую гвардию». Под самым носом у фашистских оккупантов ребята совершают многочисленные диверсии. Операции становятся всё более отчаянными и рискованными. Члены организации с ловкостью проникают на оружейные склады, портят провиант и срывают добычу угля для немецкого тыла. Немцы не подозревают, что имеют дело не с партизанами, а с горсткой юношей и подростков...
    Сэмпл
    Качество: HDTVRip
    Формат: AVI
    Видео кодек: XviD
    Аудио кодек: AC3
    Видео: XviD; 1800 Кбит/сек; 720х400 (16:9); 25,000 кадров/сек; Бит/(Пиксели*Кадры) : 0.250
    Аудио: AC-3; 192 Кбит/сек; 2 канала; 48,0 КГц

    MI

    Общее
    Полное имя : E:\закачки\Молодая гвардия \Молодая гвардия - 04 серия.avi
    Формат : AVI
    Формат/Информация : Audio Video Interleave
    Размер файла : 716 Мбайт
    Продолжительность : 50 м.
    Общий поток : 2002 Кбит/сек
    Программа кодирования : VirtualDubMod 1.5.10.3 | www.virtualdub-fr.org || (build 2550/release)
    Библиотека кодирования : VirtualDubMod build 2550/release
    Видео
    Идентификатор : 0
    Формат : MPEG-4 Visual
    Профиль формата : Advanced Simple@L5
    Параметр BVOP формата : 1
    Параметр QPel формата : Нет
    Параметр GMC формата : Без точки перехода
    Параметр матрицы формата : Выборочная
    Идентификатор кодека : XVID
    Идентификатор кодека/Подсказка : XviD
    Продолжительность : 50 м.
    Битрейт : 1800 Кбит/сек
    Ширина : 720 пикселей
    Высота : 400 пикселей
    Соотношение сторон : 16:9
    Частота кадров : 25,000 кадров/сек
    Цветовое пространство : YUV
    Субдискретизация насыщенности : 4:2:0
    Битовая глубина : 8 бит
    Тип развёртки : Прогрессивная
    Метод сжатия : С потерями
    Бит/(Пиксели*Кадры) : 0.250
    Размер потока : 644 Мбайт (90%)
    Библиотека кодирования : XviD 73
    Аудио
    Идентификатор : 1
    Формат : AC-3
    Формат/Информация : Audio Coding 3
    Расширение режима : CM (complete main)
    Параметр Endianness формата : Big
    Идентификатор кодека : 2000
    Продолжительность : 50 м.
    Вид битрейта : Постоянный
    Битрейт : 192 Кбит/сек
    Каналы : 2 канала
    Расположение каналов : Front: L R
    Частота : 48,0 КГц
    Битовая глубина : 16 бит
    Метод сжатия : С потерями
    Размер потока : 68,7 Мбайт (10%)
    Выравнивание : Разделение по промежуткам
    Продолжительность промежутка : 40 мс. (1,00 видеокадр)
    Время предзагрузки промежутка : 500 мс.

    Скриншоты

    Скачать .torrent

    Скачать торрент-файл бесплатно и на максимальной скорости!

    Как скачивать? · Что такое торрент? · Рейтинг и ограничения

    !ВНИМАНИЕ!
    Сайт не распространяет и не хранит электронные версии произведений, а занимается лишь лишь предоставлением доступа к создаваемому пользователями каталогу ссылок на торрент-файлы, которые содержат только списки хеш-сумм, убедительная просьба с жалобами обращаться напрямую к пользователю. Файлы для обмена на трекере предоставлены пользователями сайта, и администрация не несёт ответственности за их содержание. Просьба не заливать файлы, защищенные авторскими правами, а также файлы нелегального содержания!


    _________________
    [Профиль] [ЛС]
    Показать сообщения:    
    Ответить на тему

    Текущее время: Сегодня, в 04:42

    Часовой пояс: GMT + 2



    Вы не можете начинать темы
    Вы не можете отвечать на сообщения
    Вы не можете редактировать свои сообщения
    Вы не можете удалять свои сообщения
    Вы не можете голосовать в опросах
    Вы не можете прикреплять файлы к сообщениям
    Вы не можете скачивать файлы