BitTorrentTracker PerecTracker.org
BitTorrentTracker PerecTracker.org
    
Регистрация  ·  Вход
 
 · 
Забыли пароль?

  • Песня года 2015 ( эфир 2016.01.01 - 2016.01.02 ) [2016, Pop, HDTV 1080i]

    Ответить на тему
     
    Автор Сообщение

    rechyn

    Создавать темы 05-Янв-2016 10:01

           

    [Цитировать]

    Песня года 2015 ( эфир 2016.01.01 - 2016.01.02 )
    Жанр: Pop
    Продолжительность: 02:22:25 + 02:35:50
    Год выпуска: 2016
    Описание: Каждый год в первые дни нового года мы с радостью слышим позывные любимой программы: "Через годы, через расстояния, на любой дороге, в стороне любой песне ты не скажешь "до свидания", песня не прощается с тобой…" На сцене "Олимпийского" соберутся лучшие исполнители 2015-го, которые напомнят о самых ярких и счастливых минутах уходящего года. Концерт "Песня года" в Москве - это своеобразное подведение итогов. Каждый уходящий год - это отдельный музыкальный сезон, в котором были свои дебюты и свои провалы, взлеты и падения. На протяжении более сорока лет бренд "Песня года" является знаменитым и самым популярным среди тех, кто знает и любит российскую музыку, следит за творчеством звезд эстрады, посещает концерты и шоу-программы. Пожалуй, это единственный случай, когда за один вечер на одной сцене можно увидеть всех лучших представителей российского шоу-бизнеса.

    -ЧАСТЬ 01-

    01. Формула счастья - Валерия (С.Ревтов - М.Гуцериев)
    02. Мой брат - Валерий и Константин Меладзе (К.Меладзе)
    03. Давай устроем лето - София Ротару (В.Волкомор - С.Андрейович)
    04. Забываю - Любовь Успенская и Филипп Киркоров (В.Кристовский)
    05. Не совсем - Лолита (Е.Бордаченко - А.Беляев)
    06. Мир зеленого цвета - Леонид Агутин (Л.Агутин)
    07. Алиби - Ирина Аллегрова (К.Губин)
    08. Не молчи - Дима Билан и хор академии Игоря Крутого (В.Курто - А.Нехворостной)
    09. В моем сердце Куба - Сосо Павлиашвили и Roberto Kel Torres (С.Павлиашвили - Г.Карапетян)
    10. День пройдет - Кристина Орбакайте (Ю.Донская - Д.Островский)
    11. Любовь-не слова - Николай Басков (И.Крутой - М.Гуцериев)
    12. Ты моя нежность - Наргиз Закирова (М.Фадеев)
    13. Посмотри на меня - Группа "MBAND" (К.меладзе)
    14. Однолюб - Слава (С.Ревтов - М.Гуцериев)
    15. Русские любят красиво - Игорь Николаев (И.Николаев)
    16. Лететь - Анжелика Варум (Т.Паненко - А.Осенина)
    17. Забыть тебя - Эмин (О.Влади)
    18. Люба-Любовь - Ирина Дубцова (И.Дубцова)
    19. Лифт - Группа "Пицца" (С.Приказчиков)
    20. Я хочу тебя видеть - Александр Серов (Д.Журбинский - Н.Зиновьев)
    21. Этот год любви - Зара (В.Кохана - М.Гуцериев)
    22. Именно она - Олег Газманов (О.Газманов)
    23. Перепутала - Группа "Серебро" (М.Фадеев - О.Серяпкина)
    24. Оставь - Лайма Вайкуле (А.Грата)
    25. Прохожие - Филипп Киркоров (А.Резников)
    26. Уеду в сочи - Хор участников "Новая Волна" прошлых лет (И.Крутой - О.Газманов)

    -ЧАСТЬ 02-

    27. Индиго - Филипп Киркоров (T.Brkic, Z.Savin - М.Гуцериев)
    28. Мамочка - вера Брежнева (К.Меладзе)
    29. Понимаю, ты устала - Стас Михайлов (С.Михайлов - М.Гуцериев)
    30. Твоих рук родные объятия - Таисия Повалий (В.Кохана - М.Гуцериев)
    31. Это все она - Сергей Лазарев (J.Thander, C.Mason - Л.Д'элиа)
    32. Вот она любовь - A-Studio (Г.Квенетадзе - О.Жарова)
    33. Несовместимая любовь - Стас Пьеха (В.Дробыш, Т.Леонтьев - М.Гуцериев)
    34. Осенняя любовь - Ани Лорак (А.Романов - М.Гуцериев)
    35. Я обязательно вернусь - Денис Клявер (С.Бакуненко - М.Гуцериев)
    36. Ты-моя - Валерия и Анна Шульгина (И.Брылин - Н.Касимцева)
    37. Создан для тебя - Лев Лещенко (В.Бородин - В.Горбачева)
    38. Маршрутка - Группа "IOWA" (Л.Терещенко - Е.Иванчикова)
    39. Ты мое счастье - Николай Басков и Софи (А.Покутнов. В.Викс - В.Адаричев, И.Рахманина, Ю.Гончар)
    40. Цунами - Нюша (Нюша)
    41. Нам с тобой по пути - Александр Буйнов (А.Мариоли)
    42. Зависимость - Жасмин (В.Матецкий. М.Гудкин - А.Микульская)
    43. Крестики-нолики - Виктор Рыбин и Наталья Сенчукова (А.Соколов - М.Гуцериев)
    44. Моревнутри - Елка (Е.Бордаченко - А.Беляев)
    45. Это было прекрасно - Группа "ВИА ГРА"(К.Меладзе)
    46. Разлюбить не в силах - Алсу (Д.Климаешнко - А.Боев. Д.Климашенко)
    47. паромщик - Валерий Леонтьев (И.Николаев - Н.Зиновьев)
    48. Нет слова Я - наташа Королева (А.Пряжников - М.Гуцериев)
    49. Семейный праздник - Иосиф Кобзон (А.Хоралов - В.Иванов)
    50. Мама - Группа "Burito" (И.Буршнышев, И.Бледный - И.Буршнышев)
    51. Не на века - Лариса Долина (Е.Загот - К.Арсенев)
    52. Любить больше нечем - Джиган и Юлия Савичева (А.Умрихин, М.Овсянников - Джиган и А.Умрихин)
    53. Горький вкус бузины - Любовь Успенская (И.Азаров - М.Гуцериев)
    54. Девушка за рулем - Дискотека Авария (А.Рыжов)
    55. Попурри - Вячеслав Добрынин (В.Добрынин - Л.Дербенев, С.Осиашвили, М.Рябинин)
    56. Песня остается с человеком - Все участники (А.Островский - С.Островой)
    Качество: HDTV 1080i
    Контейнер: TS
    Видео кодек: H.264
    Аудио кодек: MP2
    Видео: H264; 1920x1080 (16:9); 25.000 fps; ~7 865 Kbps
    Аудио: MPEG Audio Version 1 Layer 2, 48000Hz, 2 channels stereo 192 Кбит/сек

    Отчёт MediaInfo / BDInfo

    General
    ID : 1 (0x1)
    Complete name : J:1\Песня года 2015\Песня года. Часть 2-я_2016.01.02.ts
    Format : MPEG-TS
    File size : 9.23 GiB
    Duration : 2h 35mn
    Overall bit rate mode : Variable
    Overall bit rate : 8 478 Kbps
    Video
    ID : 2911 (0xB5F)
    Menu ID : 1009 (0x3F1)
    Format : AVC
    Format/Info : Advanced Video Codec
    Format profile : High@L4.0
    Format settings, CABAC : Yes
    Format settings, ReFrames : 4 frames
    Codec ID : 27
    Duration : 2h 35mn
    Bit rate : 7 865 Kbps
    Width : 1 920 pixels
    Height : 1 080 pixels
    Display aspect ratio : 16:9
    Frame rate : 25.000 fps
    Color space : YUV
    Chroma subsampling : 4:2:0
    Bit depth : 8 bits
    Scan type : MBAFF
    Bits/(Pixel*Frame) : 0.152
    Stream size : 8.56 GiB (93%)
    Audio
    ID : 2912 (0xB60)
    Menu ID : 1009 (0x3F1)
    Format : MPEG Audio
    Format version : Version 1
    Format profile : Layer 2
    Mode : Joint stereo
    Mode extension : Intensity Stereo + MS Stereo
    Codec ID : 3
    Duration : 2h 35mn
    Bit rate mode : Constant
    Bit rate : 192 Kbps
    Channel(s) : 2 channels
    Sampling rate : 48.0 KHz
    Compression mode : Lossy
    Stream size : 214 MiB (2%)
    Language : Russian

    Скриншоты

    Скачать .torrent

    Скачать торрент-файл бесплатно и на максимальной скорости!

    Как скачивать? · Что такое торрент? · Рейтинг и ограничения

    !ВНИМАНИЕ!
    Сайт не распространяет и не хранит электронные версии произведений, а занимается лишь лишь предоставлением доступа к создаваемому пользователями каталогу ссылок на торрент-файлы, которые содержат только списки хеш-сумм, убедительная просьба с жалобами обращаться напрямую к пользователю. Файлы для обмена на трекере предоставлены пользователями сайта, и администрация не несёт ответственности за их содержание. Просьба не заливать файлы, защищенные авторскими правами, а также файлы нелегального содержания!


    _________________
    [Профиль] [ЛС]
    Показать сообщения:    
    Ответить на тему

    Текущее время: Сегодня, в 01:49

    Часовой пояс: GMT + 2



    Вы не можете начинать темы
    Вы не можете отвечать на сообщения
    Вы не можете редактировать свои сообщения
    Вы не можете удалять свои сообщения
    Вы не можете голосовать в опросах
    Вы не можете прикреплять файлы к сообщениям
    Вы не можете скачивать файлы