Register  ·  Log in
Forgot password?

  • Миньоны / Minions (Кайл Балда / Kyle Balda, Пьер Коффан / Pierre Coffin) [2015, США, комедия, семейный, DVB] [Локализованный видеоряд] Dub

    Reply to topic
    Author Message


    Post 05-Jan-2016 00:19



    Миньоны / Minions-Страна: США
    Жанр: мультфильм, комедия, семейный
    Продолжительность: 01:27:06
    Год выпуска: 2015
    Перевод: Профессиональный (дублированный)
    Русские субтитры: нет-Режиссёр: Кaйл Бaлда / Kyle Bаlda, Пьер Коффан / Pierre Coffin
    Роли дублировали: Алена Фалалеева, Сергей Смирнов, Игорь Старосельцев, Алёна Ивченко, Олег Форостенко...- | Релиз: -Описание: Миньоны живут на планете гораздо дольше нас. У них одна навязчивая идея — служить самой Гадкой личности из имеющихся в наличии. Динозавры, фараоны, Дракула, Наполеон — все они оказались недолговечны. И тогда миньоны рванули в Нью-Йорк. Их ждут деньги, власть, роковая суперзлодейка Скарлет Оверкилл и, конечно же, вкуснейшая «банана»! Во всяком случае, так им кажется.-Доп. информация: Локализованный русскоязычный видеоряд.-Семпл:Качество: DVB
    Формат: MPG
    Видео: 720x576 (16:9) @ 1024x576, 25.000 fps, MPEG-2 Video, ~2568 kbps, 0.248 bits/pixel
    Аудио: Русский, 48.0 KHz, AC3, 6 ch, 448 kbps
    Субтитры: отсутствуют


    GeneralComplete name : Minions 2015 Kinoreys Rus.mpgFormat : MPEG-PSFile size : 1.87 GiBDuration : 1h 27mnOverall bit rate mode : VariableOverall bit rate : 3 077 Kbps
    VideoID : 224 (0xE0)Format : MPEG VideoFormat version : Version 2Format profile : Main@MainFormat settings, BVOP : YesFormat settings, Matrix : CustomFormat settings, GOP : VariableFormat settings, picture structure : FrameDuration : 1h 27mnBit rate mode : VariableBit rate : 2 568 KbpsMaximum bit rate : 15.0 MbpsWidth : 720 pixelsHeight : 576 pixelsDisplay aspect ratio : 16:9Frame rate : 25.000 fpsStandard : PALColor space : YUVChroma subsampling : 4:2:0Bit depth : 8 bitsScan type : InterlacedScan order : Top Field FirstCompression mode : LossyBits/(Pixel*Frame) : 0.248Time code of first frame : 00:00:00:00Time code source : Group of pictures headerStream size : 1.56 GiB (83%)
    AudioID : 189 (0xBD)-128 (0x80)Format : AC-3Format/Info : Audio Coding 3Mode extension : CM (complete main)Format settings, Endianness : BigMuxing mode : DVD-VideoDuration : 1h 27mnBit rate mode : ConstantBit rate : 448 KbpsChannel(s) : 6 channelsChannel positions : Front: L C R, Side: L R, LFESampling rate : 48.0 KHzFrame rate : 31.250 fps (1536 spf)Compression mode : LossyStream size : 279 MiB (15%)


    Download .torrent

    Download free and at maximum speed!

    How to Download? · What is a torrent? · Ratings and Limitations

    The site does not extend and does not store electronic(digital) versions of products, and only gives access to a reference catalogue created by users on torrent-files which contain only lists of the hash-sums, the earnest entreaty, with complaints(abuse) to access directly to the user. Files for an exchange on tracker are given by users of a site, and the administration does not bear the responsibility for their maintenance. The request to not fill in the files protected by copyrights, and also files of the illegal maintenance!

    [Profile] [PM]
    Display posts from previous:    
    Reply to topic

    The time now is: Today 23:55

    All times are GMT + 3 Hours

    You cannot post new topics in this forum
    You cannot reply to topics in this forum
    You cannot edit your posts in this forum
    You cannot delete your posts in this forum
    You cannot vote in polls in this forum
    You cannot attach files in this forum
    You cannot download files in this forum