Register  ·  Log in
Forgot password?

  • Рождественская ночь / Holy Night! (Хуан Галиньянес / Juan Galiñanes) [2011, Испания, мультфильм, комедия, DVB] Dub

    Reply to topic
    Author Message


    Post 05-Jan-2016 00:19



    Рождественская ночь / Holy Night!-Страна: Испания
    Жанр: мультфильм, комедия
    Продолжительность: 01:31:50
    Год выпуска: 2011
    Перевод: Профессиональный (дублированный)
    Русские субтитры: нет-Режиссёр: Хуан Галиньянес / Juan Galiñanes- | Релиз: -Описание: В одной гостиной безмятежно уживались два мира игрушек. С одной стороны Санта Клаус и его эльфы, с другой - волхвы и другие действующие лица сцены Рождества Иисуса. В канун Рождества происходит переполох! Когда все уже было готово к празднику, оказалось, что кто-то украл сани Санта Клауса и малыша Иисуса. Праздник в опасности, игрушки обвиняют друг друга. Кто же на самом деле оказался похитителем?-Семпл:Качество: DVB
    Формат: MPG
    Видео: 720x576 (4:3) @ 768x576, 25.000 fps, MPEG-2 Video, ~3033 Kbps, 0.293 bits/pixel
    Аудио: Русский, 48.0 KHz, MPEG-1 Audio layer 2, 2 ch, 192 kbps
    Субтитры: отсутствуют


    GeneralComplete name : Holy Night! 2011 Gulli Dub Kirillitsa 2013.mpgFormat : MPEG-PSFile size : 2.11 GiBDuration : 1h 31mnOverall bit rate mode : VariableOverall bit rate : 3 291 Kbps
    VideoID : 224 (0xE0)Format : MPEG VideoFormat version : Version 2Format profile : Main@MainFormat settings, BVOP : YesFormat settings, Matrix : CustomFormat settings, GOP : VariableFormat settings, picture structure : FrameDuration : 1h 31mnBit rate mode : VariableBit rate : 3 033 KbpsMaximum bit rate : 15.0 MbpsWidth : 720 pixelsHeight : 576 pixelsDisplay aspect ratio : 4:3Frame rate : 25.000 fpsStandard : PALColor space : YUVChroma subsampling : 4:2:0Bit depth : 8 bitsScan type : InterlacedScan order : Top Field FirstCompression mode : LossyBits/(Pixel*Frame) : 0.293Time code of first frame : 00:00:00:00Time code source : Group of pictures headerGOP, Open/Closed : OpenGOP, Open/Closed of first frame : ClosedStream size : 1.95 GiB (92%)
    AudioID : 192 (0xC0)Format : MPEG AudioFormat version : Version 1Format profile : Layer 2Duration : 1h 31mnBit rate mode : ConstantBit rate : 192 KbpsChannel(s) : 2 channelsSampling rate : 48.0 KHzCompression mode : LossyStream size : 126 MiB (6%)


    Download .torrent

    Download free and at maximum speed!

    How to Download? · What is a torrent? · Ratings and Limitations

    The site does not extend and does not store electronic(digital) versions of products, and only gives access to a reference catalogue created by users on torrent-files which contain only lists of the hash-sums, the earnest entreaty, with complaints(abuse) to access directly to the user. Files for an exchange on tracker are given by users of a site, and the administration does not bear the responsibility for their maintenance. The request to not fill in the files protected by copyrights, and also files of the illegal maintenance!

    [Profile] [PM]
    Display posts from previous:    
    Reply to topic

    The time now is: Today 16:04

    All times are GMT + 3 Hours

    You cannot post new topics in this forum
    You cannot reply to topics in this forum
    You cannot edit your posts in this forum
    You cannot delete your posts in this forum
    You cannot vote in polls in this forum
    You cannot attach files in this forum
    You cannot download files in this forum