Register  ·  Log in
Forgot password?

  • Рождество с Каю / Caillou\'s Holiday Movie ( Ник Риджгерсберг / Nick Rijgersberg) [2003, Канада, мультфильм, детский, семейный, DVB] Dub

    Reply to topic
    Author Message


    Post 05-Jan-2016 00:19



    Рождество с Каю / Caillou's Holiday Movie-Страна: Канада
    Жанр: мультфильм, детский, семейный
    Продолжительность: 01:09:45
    Год выпуска: 2003
    Перевод: Профессиональный (дублированный)
    Русские субтитры: нет-Режиссёр: Ник Риджгерсберг / Nick Rijgersberg- | Релиз: -Описание: Мальчик Каю вместе со всей своей семьей узнают о разных традициях празднования Рождества и Нового года по всему свету.-Семпл:Качество: DVB
    Формат: TS
    Видео: 720x576 (4:3) @ 786x576, 25.000 fps, AVC, ~2319 Kbps, 0.224 bits/pixel
    Аудио: Русский, 48.0 KHz, MPEG-1 Audio layer 2, 2 ch, 192 kbps
    Субтитры: отсутствуют


    GeneralID : 1 (0x1)Complete name : Caillou's Holiday Movie 2003 TiJi Dub.tsFormat : MPEG-TSFile size : 1.29 GiBDuration : 1h 9mnOverall bit rate mode : VariableOverall bit rate : 2 643 KbpsMaximum Overall bit rate : 35.5 Mbps
    VideoID : 4113 (0x1011)Menu ID : 1 (0x1)Format : AVCFormat/Info : Advanced Video CodecFormat profile : High@L3Format settings, CABAC : YesFormat settings, ReFrames : 4 framesCodec ID : 27Duration : 1h 9mnBit rate : 2 319 KbpsWidth : 720 pixelsHeight : 576 pixelsDisplay aspect ratio : 4:3Frame rate : 25.000 fpsStandard : PALColor space : YUVChroma subsampling : 4:2:0Bit depth : 8 bitsScan type : InterlacedScan type, store method : Separated fieldsScan order : Top Field FirstBits/(Pixel*Frame) : 0.224Stream size : 1.13 GiB (88%)Color range : LimitedColor primaries : BT.601 PALTransfer characteristics : BT.470 System B, BT.470 System GMatrix coefficients : BT.601
    AudioID : 4352 (0x1100)Menu ID : 1 (0x1)Format : MPEG AudioFormat version : Version 1Format profile : Layer 2Codec ID : 4Duration : 1h 9mnBit rate mode : ConstantBit rate : 192 KbpsChannel(s) : 2 channelsSampling rate : 48.0 KHzCompression mode : LossyStream size : 95.8 MiB (7%)Language : Russian


    Download .torrent

    Download free and at maximum speed!

    How to Download? · What is a torrent? · Ratings and Limitations

    The site does not extend and does not store electronic(digital) versions of products, and only gives access to a reference catalogue created by users on torrent-files which contain only lists of the hash-sums, the earnest entreaty, with complaints(abuse) to access directly to the user. Files for an exchange on tracker are given by users of a site, and the administration does not bear the responsibility for their maintenance. The request to not fill in the files protected by copyrights, and also files of the illegal maintenance!

    [Profile] [PM]
    Display posts from previous:    
    Reply to topic

    The time now is: Today 03:37

    All times are GMT + 3 Hours

    You cannot post new topics in this forum
    You cannot reply to topics in this forum
    You cannot edit your posts in this forum
    You cannot delete your posts in this forum
    You cannot vote in polls in this forum
    You cannot attach files in this forum
    You cannot download files in this forum