BitTorrentTracker PerecTracker.org
BitTorrentTracker PerecTracker.org
    
Регистрация  ·  Вход
 
 · 
Забыли пароль?

  • Заклятие фараона / Under Wraps (Гордон Крам / Gordon Crum) [2014, США, мультфильм, приключения, семейный, детский, DVB] Dub

    Ответить на тему
     
    Автор Сообщение

    rechyn

    Создавать темы 04-Янв-2016 19:14

           

    [Цитировать]

    Заклятие фараона / Under Wraps-Страна: США
    Жанр: мультфильм, приключения, семейный, детский
    Продолжительность: 00:43:40
    Год выпуска: 2014
    Перевод: Профессиональный (дублированный)
    Русские субтитры: нет-Режиссёр: Гордон Крам / Gordon Crum- | Релиз: -Описание: Иногда маленькая шалость может стать началом невероятного приключения! В центре сюжета — история о том, как мальчик Дэнни случайно превратил своих родителей-археологов в мумии.-Семпл: http://sendfile.su/1189764-Качество: DVB
    Формат: MPG
    Видео: 720x576 (4:3) @ 768x576, 25.000 fps, MPEG-2 Video, ~1797 kbps, 0.173 bits/pixel
    Аудио: Русский, 48.0 KHz, MPEG-1 Audio layer 2, 2 ch, 192 kbps
    Субтитры: отсутствуют

    MediaInfo

    GeneralComplete name : Under Wraps 2014 Disney Dub.mpgFormat : MPEG-PSFile size : 634 MiBDuration : 43mn 40sOverall bit rate mode : VariableOverall bit rate : 2 030 Kbps
    VideoID : 224 (0xE0)Format : MPEG VideoFormat version : Version 2Format profile : Main@MainFormat settings, BVOP : YesFormat settings, Matrix : CustomFormat settings, GOP : VariableFormat settings, picture structure : FrameDuration : 43mn 40sBit rate mode : VariableBit rate : 1 797 KbpsMaximum bit rate : 15.0 MbpsWidth : 720 pixelsHeight : 576 pixelsDisplay aspect ratio : 4:3Frame rate : 25.000 fpsStandard : PALColor space : YUVChroma subsampling : 4:2:0Bit depth : 8 bitsScan type : InterlacedScan order : Top Field FirstCompression mode : LossyBits/(Pixel*Frame) : 0.173Time code of first frame : 00:00:00:00Time code source : Group of pictures headerGOP, Open/Closed : OpenGOP, Open/Closed of first frame : ClosedStream size : 561 MiB (89%)
    AudioID : 192 (0xC0)Format : MPEG AudioFormat version : Version 1Format profile : Layer 2Duration : 43mn 40sBit rate mode : ConstantBit rate : 192 KbpsChannel(s) : 2 channelsSampling rate : 48.0 KHzCompression mode : LossyStream size : 60.0 MiB (9%)

    Скриншоты

    Скачать .torrent

    Скачать торрент-файл бесплатно и на максимальной скорости!

    Как скачивать? · Что такое торрент? · Рейтинг и ограничения

    !ВНИМАНИЕ!
    Сайт не распространяет и не хранит электронные версии произведений, а занимается лишь лишь предоставлением доступа к создаваемому пользователями каталогу ссылок на торрент-файлы, которые содержат только списки хеш-сумм, убедительная просьба с жалобами обращаться напрямую к пользователю. Файлы для обмена на трекере предоставлены пользователями сайта, и администрация не несёт ответственности за их содержание. Просьба не заливать файлы, защищенные авторскими правами, а также файлы нелегального содержания!


    _________________
    [Профиль] [ЛС]
    Показать сообщения:    
    Ответить на тему

    Текущее время: Сегодня, в 00:22

    Часовой пояс: GMT + 2



    Вы не можете начинать темы
    Вы не можете отвечать на сообщения
    Вы не можете редактировать свои сообщения
    Вы не можете удалять свои сообщения
    Вы не можете голосовать в опросах
    Вы не можете прикреплять файлы к сообщениям
    Вы не можете скачивать файлы