Register  ·  Log in
Forgot password?

  • Заклятие фараона / Under Wraps (Гордон Крам / Gordon Crum) [2014, США, мультфильм, приключения, семейный, детский, DVB] Dub

    Reply to topic
    Author Message


    Post 04-Jan-2016 20:14



    Заклятие фараона / Under Wraps-Страна: США
    Жанр: мультфильм, приключения, семейный, детский
    Продолжительность: 00:43:40
    Год выпуска: 2014
    Перевод: Профессиональный (дублированный)
    Русские субтитры: нет-Режиссёр: Гордон Крам / Gordon Crum- | Релиз: -Описание: Иногда маленькая шалость может стать началом невероятного приключения! В центре сюжета — история о том, как мальчик Дэнни случайно превратил своих родителей-археологов в мумии.-Семпл:Качество: DVB
    Формат: MPG
    Видео: 720x576 (4:3) @ 768x576, 25.000 fps, MPEG-2 Video, ~1797 kbps, 0.173 bits/pixel
    Аудио: Русский, 48.0 KHz, MPEG-1 Audio layer 2, 2 ch, 192 kbps
    Субтитры: отсутствуют


    GeneralComplete name : Under Wraps 2014 Disney Dub.mpgFormat : MPEG-PSFile size : 634 MiBDuration : 43mn 40sOverall bit rate mode : VariableOverall bit rate : 2 030 Kbps
    VideoID : 224 (0xE0)Format : MPEG VideoFormat version : Version 2Format profile : Main@MainFormat settings, BVOP : YesFormat settings, Matrix : CustomFormat settings, GOP : VariableFormat settings, picture structure : FrameDuration : 43mn 40sBit rate mode : VariableBit rate : 1 797 KbpsMaximum bit rate : 15.0 MbpsWidth : 720 pixelsHeight : 576 pixelsDisplay aspect ratio : 4:3Frame rate : 25.000 fpsStandard : PALColor space : YUVChroma subsampling : 4:2:0Bit depth : 8 bitsScan type : InterlacedScan order : Top Field FirstCompression mode : LossyBits/(Pixel*Frame) : 0.173Time code of first frame : 00:00:00:00Time code source : Group of pictures headerGOP, Open/Closed : OpenGOP, Open/Closed of first frame : ClosedStream size : 561 MiB (89%)
    AudioID : 192 (0xC0)Format : MPEG AudioFormat version : Version 1Format profile : Layer 2Duration : 43mn 40sBit rate mode : ConstantBit rate : 192 KbpsChannel(s) : 2 channelsSampling rate : 48.0 KHzCompression mode : LossyStream size : 60.0 MiB (9%)


    Download .torrent

    Download free and at maximum speed!

    How to Download? · What is a torrent? · Ratings and Limitations

    The site does not extend and does not store electronic(digital) versions of products, and only gives access to a reference catalogue created by users on torrent-files which contain only lists of the hash-sums, the earnest entreaty, with complaints(abuse) to access directly to the user. Files for an exchange on tracker are given by users of a site, and the administration does not bear the responsibility for their maintenance. The request to not fill in the files protected by copyrights, and also files of the illegal maintenance!

    [Profile] [PM]
    Display posts from previous:    
    Reply to topic

    The time now is: Today 01:03

    All times are GMT + 3 Hours

    You cannot post new topics in this forum
    You cannot reply to topics in this forum
    You cannot edit your posts in this forum
    You cannot delete your posts in this forum
    You cannot vote in polls in this forum
    You cannot attach files in this forum
    You cannot download files in this forum