BitTorrentTracker PerecTracker.org
BitTorrentTracker PerecTracker.org
    
Регистрация  ·  Вход
 
 · 
Забыли пароль?

  • Хранитель Лев: Герои саванны / The Lion Guard: Return of the Roar (Хауи Паркинс / Howy Parkins) [2015, США, мультфильм, семейный, приключения, DVB] Dub

    Ответить на тему
     
    Автор Сообщение

    rechyn

    Создавать темы 04-Янв-2016 02:48

           

    [Цитировать]

    Хранитель Лев: Герои саванны / The Lion Guard: Return of the Roar-Страна: США
    Жанр: мультфильм, семейный, приключения
    Продолжительность: 00:42:23
    Год выпуска: 2015
    Перевод: Профессиональный (дублированный)
    Русские субтитры: нет-Режиссёр: Хауи Паркинс / Howy Parkins- | Релиз: -Описание: Встречайте Кайона, младшего детеныша Симбы и Налы! Новому герою африканской саванны предстоит стать лидером львиной охраны, состоящей из самых сильных, храбрых, быстрых и зорких представителей прайда. Именно Киан должен определить, кто займет почетное место в рядах стражей порядка.-Семпл: http://sendfile.su/1189545-Качество: DVB (Канал "Disney")
    Формат: MPG
    Видео: 720x576 (4:3) @ 768x576, 25.000 fps, MPEG-2 Video, ~1779 kbps, 0.172 bits/pixel
    Аудио: 48.0 KHz, MPEG-1 Audio layer 2, 2 ch, 192 kbps
    Субтитры: отсутствуют

    MediaInfo

    GeneralComplete name : The Lion Guard - Return of the Roar 2015 Disney Dub.mpgFormat : MPEG-PSFile size : 610 MiBDuration : 42mn 23sOverall bit rate mode : VariableOverall bit rate : 2 011 Kbps
    VideoID : 224 (0xE0)Format : MPEG VideoFormat version : Version 2Format profile : Main@MainFormat settings, BVOP : YesFormat settings, Matrix : CustomFormat settings, GOP : VariableFormat settings, picture structure : FrameDuration : 42mn 23sBit rate mode : VariableBit rate : 1 779 KbpsMaximum bit rate : 15.0 MbpsWidth : 720 pixelsHeight : 576 pixelsDisplay aspect ratio : 4:3Frame rate : 25.000 fpsStandard : PALColor space : YUVChroma subsampling : 4:2:0Bit depth : 8 bitsScan type : InterlacedScan order : Top Field FirstCompression mode : LossyBits/(Pixel*Frame) : 0.172Time code of first frame : 00:00:00:00Time code source : Group of pictures headerGOP, Open/Closed : OpenGOP, Open/Closed of first frame : ClosedStream size : 539 MiB (88%)
    AudioID : 192 (0xC0)Format : MPEG AudioFormat version : Version 1Format profile : Layer 2Duration : 42mn 23sBit rate mode : ConstantBit rate : 192 KbpsChannel(s) : 2 channelsSampling rate : 48.0 KHzCompression mode : LossyStream size : 58.2 MiB (10%)

    Скриншоты

    Скачать .torrent

    Скачать торрент-файл бесплатно и на максимальной скорости!

    Как скачивать? · Что такое торрент? · Рейтинг и ограничения

    !ВНИМАНИЕ!
    Сайт не распространяет и не хранит электронные версии произведений, а занимается лишь лишь предоставлением доступа к создаваемому пользователями каталогу ссылок на торрент-файлы, которые содержат только списки хеш-сумм, убедительная просьба с жалобами обращаться напрямую к пользователю. Файлы для обмена на трекере предоставлены пользователями сайта, и администрация не несёт ответственности за их содержание. Просьба не заливать файлы, защищенные авторскими правами, а также файлы нелегального содержания!


    _________________
    [Профиль] [ЛС]
    Показать сообщения:    
    Ответить на тему

    Текущее время: Сегодня, в 19:06

    Часовой пояс: GMT + 2



    Вы не можете начинать темы
    Вы не можете отвечать на сообщения
    Вы не можете редактировать свои сообщения
    Вы не можете удалять свои сообщения
    Вы не можете голосовать в опросах
    Вы не можете прикреплять файлы к сообщениям
    Вы не можете скачивать файлы