BitTorrentTracker PerecTracker.org
BitTorrentTracker PerecTracker.org
    
Регистрация  ·  Вход
 
 · 
Забыли пароль?

  • [ATV3] Стажёр / The Intern (Нэнси Майерс / Nancy Meyers ) [2015, США, Мелодрама, комедия, WEB-DL, HD (1080p)] DUB + Original + sub (rus, eng)

    Ответить на тему
     
    Автор Сообщение

    Flirldrerve

    Создавать темы 04-Янв-2016 02:48

           

    [Цитировать]

    Стажёр / The Intern
    «Опыт всегда в моде»
    7.627 / 10 7.30 / 10
    -Год выпуска: 2015
    Страна: США
    Жанр: Мелодрама, комедия
    Продолжительность: 02:01:35
    Перевод: Дублированный (iTunes)
    Оригинальная аудиодорожка: Есть
    Cубтитры: Русские форсированные, Русские, Английские
    Режиссёр: Нэнси Майерс
    Сценарий: Нэнси Майерс
    Продюсер: Сюзанн МакНейлл Фаруелл, Нэнси Майерс, Селия Д. Костас
    Оператор: Стивен Голдблатт
    Композитор: Теодор Шапиро
    Художник: Кристи Зиа, В. Стивен Грэхэм, Даг Хусти
    Монтаж: Роберт Лейтон
    В ролях: Роберт Де Ниро, Энн Хэтэуэй, Рене Руссо, Андерс Холм, ДжоДжо Кушнер, Эндрю Рэннеллс, Адам Дивайн, Илан Кригсфелд, Зак Перлман, Джейсон Орли
    Бюджет: $35 000 000
    Сборы в США: $75 322 941
    Сборы в России: $4 649 340
    Мировая премьера: 15 сентября 2015
    Премьера (РФ): 24 сентября 2015, «Каро-Премьер»
    Релиз на DVD: 31 декабря 2015, «CP Дистрибуция»
    Релиз на Blu-Ray: 31 декабря 2015, «CP Дистрибуция»
    Описание: 70-летний вдовец Бен Уитакер обнаруживает, что выход на пенсию — еще не конец. Пользуясь случаем, он становится старшим стажером в интернет-магазине модной одежды под руководством Джулс Остин.-Качество исходника: WEB-DL 1080p (BlueBird)
    Качество: WEB-DL
    Тип: HD (1080p)
    Контейнер: M4V
    Видео: H.264, 1912x1072, 16:9, 5 068 Kbps, 23.976 fps
    Аудио 1: Русский/Дублированный (iTunes), AAC / 2.0 / 156 Kbps / 48.0 KHz
    Аудио 2: Английский/Оригинальная дорожка , AAC / 2.0 / 152 Kbps / 48.0 KHz
    Аудио 3: Русский/Дублированный (iTunes), AC-3 / 5.1 / 384 Kbps / 48.0 KHz
    Аудио 4: Английский/Оригинальная дорожка , AC-3 / 5.1 / 384 Kbps / 48.0 KHz
    Субтитры 1: Русские форсированные
    Субтитры 2: Русские полные
    Субтитры 3: Английские полные
    -

    iTunes Meta Tags

    Sort Name: Intern
    XID: Apple:vendor_id:2015-677893
    contentID: 1041445878
    Copyright: © 2015 Warner Bros. Entertainment Inc. and RatPac-Dune Entertainment LLC. All Rights Reserved.
    Screenwriters: Нэнси Майерс
    Producers: Сюзанн МакНейлл Фаруелл, Нэнси Майерс, Селия Д. Костас
    Director: Нэнси Майерс
    Cast: Роберт Де Ниро, Энн Хэтэуэй, Рене Руссо, Андерс Холм, ДжоДжо Кушнер, Эндрю Рэннеллс, Адам Дивайн, Илан Кригсфелд, Зак Перлман, Джейсон Орли, Александр Клюквин, Татьяна Шитова, Ольга Плетнёва, Иван Калинин, Илья Бледный
    Studio: Warner Bros.
    Rating: 4
    Long Description: 70-летний вдовец Бен Уитакер обнаруживает, что выход на пенсию - еще не конец. Пользуясь случаем, он становится старшим стажером в интернет-магазине модной одежды под руководством Джулс Остин.
    Description: 70-летний вдовец Бен Уитакер обнаруживает, что выход на пенсию - еще не конец. Пользуясь случаем, он становится старшим стажером в интернет-магазине модной одежды под руководством Джулс Остин.
    Release Date: 2015-09-15T08:00:00Z
    Genre: Comedy
    Artist: Nancy Meyers
    Name: The Intern

    MediaInfo

    General
    Complete name : /Users/imac/HandBrake/The.Intern.WEB-DL.1080p.m4v
    Format : MPEG-4
    Codec ID : M4V  (M4V /M4A /mp42/isom)
    File size : 5.23 GiB
    Duration : 2h 1mn
    Overall bit rate mode : Variable
    Overall bit rate : 6 153 Kbps
    Movie name : The Intern
    Performer : Nancy Meyers
    Director : Нэнси Майерс
    Actor : Роберт Де Ниро / Энн Хэтэуэй / Рене Руссо / Андерс Холм / ДжоДжо Кушнер / Эндрю Рэннеллс / Адам Дивайн / Илан Кригсфелд / Зак Перлман / Джейсон Орли / Александр Клюквин / Татьяна Шитова / Ольга Плетнёва / Иван Калинин / Илья Бледный
    Screenplay by : Нэнси Майерс
    Producer : Сюзанн МакНейлл Фаруелл / Нэнси Майерс / Селия Д. Костас
    Production studio : Warner Bros.
    Genre : Comedy
    ContentType : Short Film
    Description : 70-летний вдовец Бен Уитакер обнаруживает, что выход на пенсию - еще не конец. Пользуясь случаем, он становится старшим стажером в интернет-магазине модной одежды под руководством Джулс Остин.
    Recorded date : UTC 2015-09-15 08:00:00
    Encoded date : UTC 2016-01-03 12:40:49
    Tagged date : UTC 2016-01-03 12:45:17
    Copyright : © 2015 Warner Bros. Entertainment Inc. and RatPac-Dune Entertainment LLC. All Rights Reserved.
    Cover : Yes
    Rating : None
    Title/Sort : Intern
    LongDescription : 70-летний вдовец Бен Уитакер обнаруживает, что выход на пенсию - еще не конец. Пользуясь случаем, он становится старшим стажером в интернет-магазине модной одежды под руководством Джулс Остин.
    AppleStoreCatalogID : 1041445878
    Vendor : Apple:vendor_id:2015-677893
    ContentRating : mpaa|PG-13|300|
    Video #1
    ID : 1
    Format : AVC
    Format/Info : Advanced Video Codec
    Format profile : High@L4
    Format settings, CABAC : Yes
    Format settings, ReFrames : 4 frames
    Codec ID : avc1
    Codec ID/Info : Advanced Video Coding
    Duration : 2h 1mn
    Bit rate : 5 068 Kbps
    Width : 1 912 pixels
    Height : 1 072 pixels
    Display aspect ratio : 16:9
    Frame rate : 23.976 fps
    Color space : YUV
    Chroma subsampling : 4:2:0
    Bit depth : 8 bits
    Scan type : Progressive
    Bits/(Pixel*Frame) : 0.103
    Stream size : 4.30 GiB (82%)
    Title : Main Program
    Language : English
    Encoded date : UTC 2016-01-03 12:40:49
    Tagged date : UTC 2016-01-03 12:40:59
    Color range : Limited
    Color primaries : BT.709
    Transfer characteristics : BT.709
    Matrix coefficients : BT.709
    Menus : 9,10
    Video #2
    ID : 10
    Format : JPEG
    Codec ID : jpeg
    Duration : 2h 1mn
    Bit rate mode : Variable
    Bit rate : 1 009 bps
    Width : 640 pixels
    Height : 358 pixels
    Display aspect ratio : 16:9
    Frame rate mode : Variable
    Frame rate : 0.002 fps
    Minimum frame rate : 0.001 fps
    Maximum frame rate : 0.020 fps
    Color space : YUV
    Chroma subsampling : 4:2:0
    Bit depth : 8 bits
    Compression mode : Lossy
    Bits/(Pixel*Frame) : 2.202
    Stream size : 862 KiB (0%)
    Title : Chapter Images
    Language : English
    Default : No
    Encoded date : UTC 2016-01-03 12:41:08
    Tagged date : UTC 2016-01-03 12:41:08
    Menu For : 1
    Audio #1
    ID : 2
    Format : AAC
    Format/Info : Advanced Audio Codec
    Format profile : LC
    Codec ID : 40
    Duration : 2h 1mn
    Bit rate mode : Variable
    Bit rate : 156 Kbps
    Maximum bit rate : 239 Kbps
    Channel(s) : 2 channels
    Channel positions : Front: L R
    Sampling rate : 48.0 KHz
    Frame rate : 46.875 fps (1024 spf)
    Compression mode : Lossy
    Stream size : 136 MiB (3%)
    Title : Russian Stereo
    Language : Russian
    Default : Yes
    Alternate group : 1
    Encoded date : UTC 2016-01-03 12:40:49
    Tagged date : UTC 2016-01-03 12:41:01
    Fallback From : 4
    Subtitles : 6,7
    Menus : 9
    Audio #2
    ID : 3
    Format : AAC
    Format/Info : Advanced Audio Codec
    Format profile : LC
    Codec ID : 40
    Duration : 2h 1mn
    Bit rate mode : Variable
    Bit rate : 152 Kbps
    Maximum bit rate : 252 Kbps
    Channel(s) : 2 channels
    Channel positions : Front: L R
    Sampling rate : 48.0 KHz
    Frame rate : 46.875 fps (1024 spf)
    Compression mode : Lossy
    Stream size : 132 MiB (2%)
    Title : English Stereo
    Language : English
    Default : No
    Alternate group : 1
    Encoded date : UTC 2016-01-03 12:40:49
    Tagged date : UTC 2016-01-03 12:41:01
    Fallback From : 5
    Audio #3
    ID : 4
    Format : AC-3
    Format/Info : Audio Coding 3
    Mode extension : CM (complete main)
    Format settings, Endianness : Big
    Codec ID : ac-3
    Duration : 2h 1mn
    Bit rate mode : Constant
    Bit rate : 384 Kbps
    Channel(s) : 6 channels
    Channel positions : Front: L C R, Side: L R, LFE
    Sampling rate : 48.0 KHz
    Frame rate : 31.250 fps (1536 spf)
    Bit depth : 16 bits
    Compression mode : Lossy
    Stream size : 334 MiB (6%)
    Title : Russian DD 5.1
    Language : Russian
    Default : Inherited From: 2
    Alternate group : 1
    Encoded date : UTC 2016-01-03 12:40:49
    Tagged date : UTC 2016-01-03 12:40:59
    Fallback To : 2
    Subtitles : 6,7
    Audio #4
    ID : 5
    Format : AC-3
    Format/Info : Audio Coding 3
    Mode extension : CM (complete main)
    Format settings, Endianness : Big
    Codec ID : ac-3
    Duration : 2h 1mn
    Bit rate mode : Constant
    Bit rate : 384 Kbps
    Channel(s) : 6 channels
    Channel positions : Front: L C R, Side: L R, LFE
    Sampling rate : 48.0 KHz
    Frame rate : 31.250 fps (1536 spf)
    Bit depth : 16 bits
    Compression mode : Lossy
    Stream size : 334 MiB (6%)
    Title : English DD 5.1
    Language : English
    Default : No
    Alternate group : 1
    Encoded date : UTC 2016-01-03 12:40:49
    Tagged date : UTC 2016-01-03 12:40:59
    Fallback To : 3
    Text #1
    ID : 6
    Format : Timed Text
    Muxing mode : sbtl
    Codec ID : tx3g
    Duration : 1h 26mn
    Bit rate mode : Variable
    Bit rate : 2 bps
    Stream size : 1 014 Bytes (0%)
    Title : Russian forced
    Language : Russian
    Default : Yes
    Forced : Yes
    Alternate group : 2
    Encoded date : UTC 2016-01-03 12:40:49
    Tagged date : UTC 2016-01-03 12:40:49
    Subtitles For : 2,4
    Full Alternative : 7
    Text #2
    ID : 7
    Format : Timed Text
    Muxing mode : sbtl
    Codec ID : tx3g
    Duration : 1h 56mn
    Bit rate mode : Variable
    Bit rate : 145 bps
    Stream size : 124 KiB (0%)
    Title : Russian full
    Language : Russian
    Default : No
    Forced : No
    Alternate group : 2
    Encoded date : UTC 2016-01-03 12:40:49
    Tagged date : UTC 2016-01-03 12:40:50
    Subtitles For : 2,4
    Forced Alternative : 6
    Text #3
    ID : 8
    Format : Timed Text
    Muxing mode : sbtl
    Codec ID : tx3g
    Duration : 1h 56mn
    Bit rate mode : Variable
    Bit rate : 96 bps
    Stream size : 81.8 KiB (0%)
    Title : English full
    Language : English
    Default : No
    Forced : No
    Alternate group : 2
    Encoded date : UTC 2016-01-03 12:40:49
    Tagged date : UTC 2016-01-03 12:40:50
    Menu #1
    00:00:00.000 : 1
    00:09:30.000 : 2
    00:19:54.000 : 3
    00:29:39.000 : 4
    00:30:29.000 : 5
    00:41:17.000 : 6
    00:50:18.000 : 7
    01:00:33.000 : 8
    01:10:18.000 : 9
    01:19:15.000 : 10
    01:30:58.000 : 11
    01:42:48.000 : 12
    01:51:10.000 : 13
    01:56:41.000 : 14
    Menu #2
    ID : 9
    Codec ID : text
    Duration : 2h 1mn
    Language : English
    Encoded date : UTC 2016-01-03 12:41:01
    Tagged date : UTC 2016-01-03 12:41:01
    Menu For : 2,1
    00:00:00.000 : 1
    00:09:30.000 : 2
    00:19:54.000 : 3
    00:29:39.000 : 4
    00:30:29.000 : 5
    00:41:17.000 : 6
    00:50:18.000 : 7
    01:00:33.000 : 8
    01:10:18.000 : 9
    01:19:15.000 : 10
    01:30:58.000 : 11
    01:42:48.000 : 12
    01:51:10.000 : 13
    01:56:41.000 : 14
    Bit rate mode : VBR

    Скриншоты

    -

    Релиз подготовлен для просмотра на Apple TV, iPad, iPhone, iPod Touch.
    Для просмотра данного релиза на компьютере с ОС Windows рекомендуется использовать VLC media player
    Скачать .torrent

    Скачать торрент-файл бесплатно и на максимальной скорости!

    Как скачивать? · Что такое торрент? · Рейтинг и ограничения

    !ВНИМАНИЕ!
    Сайт не распространяет и не хранит электронные версии произведений, а занимается лишь лишь предоставлением доступа к создаваемому пользователями каталогу ссылок на торрент-файлы, которые содержат только списки хеш-сумм, убедительная просьба с жалобами обращаться напрямую к пользователю. Файлы для обмена на трекере предоставлены пользователями сайта, и администрация не несёт ответственности за их содержание. Просьба не заливать файлы, защищенные авторскими правами, а также файлы нелегального содержания!


    _________________
    [Профиль] [ЛС]
    Показать сообщения:    
    Ответить на тему

    Текущее время: Сегодня, в 22:18

    Часовой пояс: GMT + 2



    Вы не можете начинать темы
    Вы не можете отвечать на сообщения
    Вы не можете редактировать свои сообщения
    Вы не можете удалять свои сообщения
    Вы не можете голосовать в опросах
    Вы не можете прикреплять файлы к сообщениям
    Вы не можете скачивать файлы