BitTorrentTracker PerecTracker.org
BitTorrentTracker PerecTracker.org
    
Регистрация  ·  Вход
 
 · 
Забыли пароль?

  • Список Санты / The Naughty List (Гордон Крам / Gordon Crum) [2013, Канада, Приключения, комедия, семейный, DVB] Dub

    Ответить на тему
     
    Автор Сообщение

    rechyn

    Создавать темы 03-Янв-2016 22:43

           

    [Цитировать]

    Список Санты / The Naughty List
    Страна: Канада
    Жанр: Приключения, комедия, семейный
    Продолжительность: 00:42:48
    Год выпуска: 2013
    Перевод: Профессиональный (дублированный) канал "Дисней"
    Русские субтитры: нет
    Режиссёр: Гордон Крам / Gordon Crum
    Роли озвучивали: Дрейк Белл, Шон Эстин, Ная Ривера, Кайл Чандлер, Мэттью Лиллард
    Описание: Два непоседливых эльфа устроили настоящий переполох на Северном полюсе! Они во что бы то ни стало должны исправить свои оплошности до наступления Рождества.
    Семпл: https://www.sendspace.com/file/3o07k2
    Качество: DVB
    Формат: MPG
    Видео: MPEG2, 720:576, (4:3), 1707 Кбит/сек, 25,000 кадров/сек, (0.165 bit/pixel)
    Аудио: MP2, 192 Кбит/сек, 48,0 КГц, 2 канала
    Субтитры: Отсутствуют

    Подробные технические данные

    ОбщееПолное имя : Список Санты.mpgФормат : MPEG-PSРазмер файла : 589 МбайтПродолжительность : 42 м.Режим общего битрейта : ПеременныйОбщий поток : 1937 Кбит/сек
    ВидеоИдентификатор : 224 (0xE0)Формат : MPEG VideoВерсия формата : Version 2Профиль формата : Main@MainПараметр BVOP формата : ДаПараметр матрицы формата : ВыборочнаяПараметр GOP формата : VariableСтруктура изображения : FrameПродолжительность : 42 м.Вид битрейта : ПеременныйБитрейт : 1707 Кбит/секМаксимальный битрейт : 15,0 Мбит/секШирина : 720 пикселейВысота : 576 пикселейСоотношение сторон : 4:3Частота кадров : 25,000 кадров/секСтандарт вещания : PALЦветовое пространство : YUVСубдискретизация насыщенности : 4:2:0Битовая глубина : 8 битТип развёртки : ЧересстрочнаяПорядок развёртки : Верхнее поле первоеМетод сжатия : С потерямиБит/(Пиксели*Кадры) : 0.165Временной код первого кадра : 00:00:00:00Оригинал временного кода : Group of pictures headerGOP, открыто/закрыто : ОткрытоGOP, открыто/закрыто на первом кадре : ЗакрытоРазмер потока : 519 Мбайт (88%)
    АудиоИдентификатор : 192 (0xC0)Формат : MPEG AudioВерсия формата : Version 1Профиль формата : Layer 2Продолжительность : 42 м.Вид битрейта : ПостоянныйБитрейт : 192 Кбит/секКаналы : 2 каналаЧастота : 48,0 КГцМетод сжатия : С потерямиЗадержка видео : 1 мс.Размер потока : 58,3 Мбайт (10%)

    Скриншоты

    Запись потока *.ts произведена тюнером цифрового телевидения. В связи с тем, что не все плееры воспроизводят поток *.ts (MPEG-TS) , в данном видеофайле мной был сделан ремукс потока *.ts (MPEG-TS) в *.mpg (MPEG-PS) программой VideoReDo
    Скачать .torrent

    Скачать торрент-файл бесплатно и на максимальной скорости!

    Как скачивать? · Что такое торрент? · Рейтинг и ограничения

    !ВНИМАНИЕ!
    Сайт не распространяет и не хранит электронные версии произведений, а занимается лишь лишь предоставлением доступа к создаваемому пользователями каталогу ссылок на торрент-файлы, которые содержат только списки хеш-сумм, убедительная просьба с жалобами обращаться напрямую к пользователю. Файлы для обмена на трекере предоставлены пользователями сайта, и администрация не несёт ответственности за их содержание. Просьба не заливать файлы, защищенные авторскими правами, а также файлы нелегального содержания!


    _________________
    [Профиль] [ЛС]
    Показать сообщения:    
    Ответить на тему

    Текущее время: Сегодня, в 18:59

    Часовой пояс: GMT + 2



    Вы не можете начинать темы
    Вы не можете отвечать на сообщения
    Вы не можете редактировать свои сообщения
    Вы не можете удалять свои сообщения
    Вы не можете голосовать в опросах
    Вы не можете прикреплять файлы к сообщениям
    Вы не можете скачивать файлы