Register  ·  Log in
Forgot password?

  • Сказка о добре и вре... (Елена Шиляева) [2013, сказка, детский, HDRip]

    Reply to topic
    Author Message


    Post 03-Jan-2016 19:38



    Сказка о добре и вре...
    Жанр: Сказка, детский
    Год выпуска: 2013
    Продолжительность: 01:28:30
    Режиссёр: Елена Шиляева
    В ролях: Маша Никишина, Макар Верговский, Михаил Малышев, Регина Шаталова, Татьяна Филоненко, Оксана Краскова, Павел Усов, Игорь Пантин, Евгений Сизов, Люба Бондарь, Игорь Двоеглазов
    Описание: Трое современных ребят попадают в сказку, чтобы с помощью молодильных яблок вернуть молодость своей бабушке. Дети оказываются в стране Врандии, которой правит мадам Вра и её помощники Ап и Оп. Здесь они встречают принцессу Труэ, которая мечтает возродить страну Верландию, которой так гордились когда-то сказочные жители...
    Доп. информация:
    Формат видео: AVI
    Качество видео: HDRip
    Видео: XviD, 720x400, 25fps, 2129kbps
    Аудио: AC3 Dolby Digital, 2ch, 44100Hz, 192kbps


    Complete name : Skazka.O.Dobre.I.Vre.2013.O.HDRip.1400.avi
    Format : AVI
    Format/Info : Audio Video Interleave
    Format profile : OpenDML
    File size : 1.44 GiB
    Duration : 1h 28mn
    Overall bit rate : 2 333 Kbps
    Writing application : XviD4PSP 6.0 / 54.29.105
    ID : 0
    Format : xvid
    Codec ID : xvid
    Duration : 1h 28mn
    Bit rate : 2 129 Kbps
    Width : 720 pixels
    Height : 400 pixels
    Display aspect ratio : 16:9
    Frame rate : 25.000 fps
    Bits/(Pixel*Frame) : 0.296
    Stream size : 1.32 GiB (91%)
    ID : 1
    Format : AC-3
    Format/Info : Audio Coding 3
    Mode extension : CM (complete main)
    Format settings, Endianness : Big
    Codec ID : 2000
    Duration : 1h 28mn
    Bit rate mode : Constant
    Bit rate : 192 Kbps
    Channel(s) : 2 channels
    Channel positions : Front: L R
    Sampling rate : 44.1 KHz
    Bit depth : 16 bits
    Compression mode : Lossy
    Stream size : 122 MiB (8%)
    Alignment : Aligned on interleaves
    Interleave, duration : 35 ms (0.87 video frame)


    Download .torrent

    Download free and at maximum speed!

    How to Download? · What is a torrent? · Ratings and Limitations

    The site does not extend and does not store electronic(digital) versions of products, and only gives access to a reference catalogue created by users on torrent-files which contain only lists of the hash-sums, the earnest entreaty, with complaints(abuse) to access directly to the user. Files for an exchange on tracker are given by users of a site, and the administration does not bear the responsibility for their maintenance. The request to not fill in the files protected by copyrights, and also files of the illegal maintenance!

    [Profile] [PM]
    Display posts from previous:    
    Reply to topic

    The time now is: Today 06:19

    All times are GMT + 3 Hours

    You cannot post new topics in this forum
    You cannot reply to topics in this forum
    You cannot edit your posts in this forum
    You cannot delete your posts in this forum
    You cannot vote in polls in this forum
    You cannot attach files in this forum
    You cannot download files in this forum