BitTorrentTracker PerecTracker.org
BitTorrentTracker PerecTracker.org
    
Регистрация  ·  Вход
 
 · 
Забыли пароль?

  • Агент Икс / Agent X / Сезон: 1 / Серии: 1-10 из 10 (Питер О’Фаллон, Ута Бризвитц) [2015, боевик, драма, WEB-DLRip] MVO (Ideafilm) + Original

    Ответить на тему
     
    Автор Сообщение

    rechyn

    Создавать темы 03-Янв-2016 00:37

           

    [Цитировать]

    Агент ИксAgent X-Год выпуска: 2015
    Страна: США
    Жанр: боевик, драма
    Продолжительность: ~ 00:43:00-Перевод: Профессиональный (многоголосый закадровый) Ideafilm
    Режиссёры: Питер О’Фаллон, Ута Бризвитц, Феликс Энрикез Алькала
    В ролях: Шэрон Стоун, Питер Дверрихаус, Андрей Ковски, Джеффри Блейк, Майк Колтер, Колин Корригэн, Эльдо Рэй Эстес, Ольга Фонда, Йен Хоуз, Джефф Хефнер и др.-Описание: Жена кандидата в сенаторы после внезапной смерти супруга включается в предвыборную гонку и одерживает победу. Довольно быстро ей удаётся подняться ещё выше и получить должность вице-президента США. Однако на новом посту её ждут неожиданности. Вскорости героиня выясняет, что кроме официальных обязанностей в её компетенцию заодно входит некая суперсекретная миссия по охране конституции Штатов. Поможет героине в этом тайный спецагент высшего класса Джон Кейс, чья личность засекречена даже от высших кругов власти в стране.-Доп. информация: Без рекламных ВидеоАудио вставок-Альтернативные раздачи
    Сэмпл-Качество: WEB-DLRip
    Формат: AVI
    Видео: XviD, 720x400 (16:9), 23,976 fps, ~1500 kbps
    Аудио: Rus. MP3, 48 kHz, 2 ch, 128 kbps
    Аудио: Eng. MP3, 48 kHz, 2 ch, 128 kbps
    Субтитры: отсутствуют

    Список серий

    01. Pilot
    02. Back in Your Arms
    03. Truth, Lies and Consequences
    04. The Devil & John Case
    05. The Man, the Myth, the Legend
    06. Long Walk Home
    07. Angels and Demons
    08. Penultimatum
    09. Fidelity
    10. TBA

    MediaInfo

    Полное имя                               : Agent.X.S01.WEB-DLRip.RusEng.Ideafilm\Agent.X.S01E01.WEB-DLRip.RusEng.Ideafilm.L.avi
    Формат                                   : AVI
    Формат/Информация                        : Audio Video Interleave
    Размер файла                             : 550 Мбайт
    Продолжительность                        : 43 м.
    Общий поток                              : 1787 Кбит/сек
    Программа кодирования                    : VirtualDubMod 1.5.10.3 (build 2550/release)
    Библиотека кодирования                   : VirtualDubMod build 2550/release
    Видео
    Идентификатор                            : 0
    Формат                                   : MPEG-4 Visual
    Профиль формата                          : Advanced Simple@L5
    Параметр BVOP формата                    : 1
    Параметр QPel формата                    : Нет
    Параметр GMC формата                     : Без точки перехода
    Параметр матрицы формата                 : Default (H.263)
    Идентификатор кодека                     : XVID
    Идентификатор кодека/Подсказка           : XviD
    Продолжительность                        : 43 м.
    Битрейт                                  : 1517 Кбит/сек
    Ширина                                   : 720 пикселей
    Высота                                   : 400 пикселей
    Соотношение сторон                       : 16:9
    Частота кадров                           : 23,976 кадра/сек
    Цветовое пространство                    : YUV
    Субдискретизация насыщенности            : 4:2:0
    Битовая глубина                          : 8 бит
    Тип развёртки                            : Прогрессивная
    Метод сжатия                             : С потерями
    Бит/(Пиксели*Кадры)                      : 0.220
    Размер потока                            : 467 Мбайт (85%)
    Библиотека кодирования                   : XviD 1.2.1 (UTC 2008-12-04)
    Аудио #1
    Идентификатор                            : 1
    Формат                                   : MPEG Audio
    Версия формата                           : Version 1
    Профиль формата                          : Layer 3
    Режим                                    : Joint stereo
    Расширение режима                        : MS Stereo
    Идентификатор кодека                     : 55
    Идентификатор кодека/Подсказка           : MP3
    Продолжительность                        : 43 м.
    Вид битрейта                             : Постоянный
    Битрейт                                  : 128 Кбит/сек
    Каналы                                   : 2 канала
    Частота                                  : 48,0 КГц
    Метод сжатия                             : С потерями
    Размер потока                            : 39,4 Мбайт (7%)
    Выравнивание                             : Соединение по промежуткам
    Продолжительность промежутка             : 42  мс. (1,00 видеокадр)
    Время предзагрузки промежутка            : 504  мс.
    Аудио #2
    Идентификатор                            : 2
    Формат                                   : MPEG Audio
    Версия формата                           : Version 1
    Профиль формата                          : Layer 3
    Режим                                    : Joint stereo
    Расширение режима                        : MS Stereo
    Идентификатор кодека                     : 55
    Идентификатор кодека/Подсказка           : MP3
    Продолжительность                        : 43 м.
    Вид битрейта                             : Постоянный
    Битрейт                                  : 128 Кбит/сек
    Каналы                                   : 2 канала
    Частота                                  : 48,0 КГц
    Метод сжатия                             : С потерями
    Размер потока                            : 39,4 Мбайт (7%)
    Выравнивание                             : Соединение по промежуткам
    Продолжительность промежутка             : 42  мс. (1,00 видеокадр)
    Время предзагрузки промежутка            : 504  мс.

    Скриншоты

    Скачать .torrent

    Скачать торрент-файл бесплатно и на максимальной скорости!

    Как скачивать? · Что такое торрент? · Рейтинг и ограничения

    !ВНИМАНИЕ!
    Сайт не распространяет и не хранит электронные версии произведений, а занимается лишь лишь предоставлением доступа к создаваемому пользователями каталогу ссылок на торрент-файлы, которые содержат только списки хеш-сумм, убедительная просьба с жалобами обращаться напрямую к пользователю. Файлы для обмена на трекере предоставлены пользователями сайта, и администрация не несёт ответственности за их содержание. Просьба не заливать файлы, защищенные авторскими правами, а также файлы нелегального содержания!


    _________________
    [Профиль] [ЛС]
    Показать сообщения:    
    Ответить на тему

    Текущее время: Сегодня, в 22:27

    Часовой пояс: GMT + 2



    Вы не можете начинать темы
    Вы не можете отвечать на сообщения
    Вы не можете редактировать свои сообщения
    Вы не можете удалять свои сообщения
    Вы не можете голосовать в опросах
    Вы не можете прикреплять файлы к сообщениям
    Вы не можете скачивать файлы