BitTorrentTracker PerecTracker.org
BitTorrentTracker PerecTracker.org
    
Регистрация  ·  Вход
 
 · 
Забыли пароль?

  • Леди исчезают в полночь / Серии: 1-4 из 4 (Александр Черных) [2015, Детектив,триллер, SATRip]

    Ответить на тему
     
    Автор Сообщение

    rechyn

    Создавать темы 03-Янв-2016 00:31

           

    [Цитировать]

    Леди исчезают в полночь
    Год выпуска: 2015
    Производство: Россия, ТВЦ, Кинокомпания «Марс Медиа»
    Жанр: Детектив,триллер
    Продолжительность: ~0:45:00 серия
    Субтитры: нет
    Режиссёр:Александр Черных
    В ролях: Даниил Страхов, Вера Строкова, Евдокия Германова, Семён Штейнберг, Екатерина Соломатина, Ксения Радченко (II)
    Описание: У Сони есть стойкое чувство, которое не исчезает не смотря ни на, что, ей 28, а ее жизнь словно расписана по нотам, и каждый новый прожитый день напоминает событие ушедшего вчера. Однажды она знакомится с удивительной дамой преклонного возраста, старушка в буквальном смысле светится жизнью. И старая леди становится для нее лучом света в темном царстве Сониного однообразия. Однако вскоре Рената пропадает. Это очень похоже на старушку, но Соня обеспокоена, и девушка пытается разобраться начиная свое собственное расследование.
    Все раздачи сериала: Леди исчезают в полночь
    Семпл
    Качество: SATRip
    Формат: AVI
    Видео кодек: XviD
    Аудио кодек: АС-3
    Видео: 720x400 (1.80:1), 25 fps, XviD build 50 ~1701 kbps avg, 0.241 bit/pixel
    Аудио: 48 kHz, AC3 Dolby Digital, 2/0 (L,R) ch, ~192.00 kbps avg
    Сторонней рекламы нет!

    MediaInfo

    General
    Complete name : D:\Vytas\Video\Ledi.ischezajut.v.polnoch.2015.SATRip.Files-x.Ledi.ischezajut.v.polnoch.2015.SATRip.Files-x.avi
    Format : AVI
    Format/Info : Audio Video Interleave
    File size : 600 MiB
    Duration : 44mn 5s
    Overall bit rate : 1 903 Kbps
    Writing application : VirtualDubMod 1.5.10.3 | www.virtualdub-fr.org || (build 2550/release)
    Writing library : VirtualDubMod build 2550/release
    Video
    ID : 0
    Format : MPEG-4 Visual
    Format profile : Advanced Simple@L5
    Format settings, BVOP : 1
    Format settings, QPel : No
    Format settings, GMC : No warppoints
    Format settings, Matrix : Custom
    Codec ID : XVID
    Codec ID/Hint : XviD
    Duration : 44mn 5s
    Bit rate : 1 701 Kbps
    Width : 720 pixels
    Height : 400 pixels
    Display aspect ratio : 16:9
    Frame rate : 25.000 fps
    Color space : YUV
    Chroma subsampling : 4:2:0
    Bit depth : 8 bits
    Scan type : Progressive
    Compression mode : Lossy
    Bits/(Pixel*Frame) : 0.236
    Stream size : 536 MiB (89%)
    Writing library : XviD 73
    Audio
    ID : 1
    Format : AC-3
    Format/Info : Audio Coding 3
    Mode extension : CM (complete main)
    Format settings, Endianness : Big
    Codec ID : 2000
    Duration : 44mn 5s
    Bit rate mode : Constant
    Bit rate : 192 Kbps
    Channel(s) : 2 channels
    Channel positions : Front: L R
    Sampling rate : 48.0 KHz
    Compression mode : Lossy
    Stream size : 60.6 MiB (10%)
    Alignment : Split accross interleaves
    Interleave, duration : 40 ms (1.00 video frame)
    Interleave, preload duratio : 500 ms
    Рип:

    Скриншоты

    Скачать .torrent

    Скачать торрент-файл бесплатно и на максимальной скорости!

    Как скачивать? · Что такое торрент? · Рейтинг и ограничения

    !ВНИМАНИЕ!
    Сайт не распространяет и не хранит электронные версии произведений, а занимается лишь лишь предоставлением доступа к создаваемому пользователями каталогу ссылок на торрент-файлы, которые содержат только списки хеш-сумм, убедительная просьба с жалобами обращаться напрямую к пользователю. Файлы для обмена на трекере предоставлены пользователями сайта, и администрация не несёт ответственности за их содержание. Просьба не заливать файлы, защищенные авторскими правами, а также файлы нелегального содержания!


    _________________
    [Профиль] [ЛС]
    Показать сообщения:    
    Ответить на тему

    Текущее время: Сегодня, в 12:23

    Часовой пояс: GMT + 2



    Вы не можете начинать темы
    Вы не можете отвечать на сообщения
    Вы не можете редактировать свои сообщения
    Вы не можете удалять свои сообщения
    Вы не можете голосовать в опросах
    Вы не можете прикреплять файлы к сообщениям
    Вы не можете скачивать файлы