Register  ·  Log in
Forgot password?

  • Трамбо / Trumbo (Джей Роуч / Jay Roach) [2015, США, драма, биография, DVDScr] DVO (Паровоз Продакшн)

    Reply to topic
    Author Message


    Post 02-Jan-2016 23:07



    Трамбо / TrumboСтрана: США
    Жанр: драма, биография
    Год выпуска: 2015
    Продолжительность: 02:04:09
    Перевод: Любительский (двухголосый закадровый) Паровоз Продакшн
    Cубтитры: нет
    Режиссер: Джей Роуч / Jay Roach
    В ролях: Брайан Крэнстон, Дайан Лэйн, Хелен Миррен, Майкл Стулбарг, Дэвид Мальдонадо, Джон Гец, Лаура Флэннери, Дэвид Джеймс Эллиотт, Тоби Николс, Джозеф С. Мартино, Мэдисон Вульф, Джейсон Бэйл, Джеймс ДюМонт, Алан Тьюдик, Луис С.К., Дэн Баккедаль, Ричард Портноу, Роджер Барт, Джонни Снид, Рио Хекфорд
    Описание: Далтон Трамбо, один из самых успешных голливудских сценаристов, автор «Римских каникул» и «Спартака», не подозревал, что черный список «Hollywood 10» реально существует, пока сам не попал туда и не был навсегда выкинут из жизни фабрики грез…

    Качество видео: DVDScr
    Формат видео: AVI
    Видео кодек: XviD
    Аудио кодек: AC3
    Видео: 720x384 (1.88:1), 29.970 fps, XviD build 50 ~1699 kbps avg, 0.20 bit/pixel
    Аудио#1: 48 kHz, AC3 Dolby Digital, 2/0 2 ch, ~192 kbps


    Complete name : Трамбо 2015.avi
    Format : AVI
    Format/Info : Audio Video Interleave
    File size : 1.65 GiB
    Duration : 2h 4mn
    Overall bit rate : 1 904 Kbps
    Writing application : VirtualDubMod | || (build 2550/release)
    Writing library : VirtualDubMod build 2550/release
    ID : 0
    Format : MPEG-4 Visual
    Format profile : Advanced Simple@L5
    Format settings, BVOP : 2
    Format settings, QPel : Yes
    Format settings, GMC : No warppoints
    Format settings, Matrix : Default (H.263)
    Codec ID : XVID
    Codec ID/Hint : XviD
    Duration : 2h 4mn
    Bit rate : 1 700 Kbps
    Width : 720 pixels
    Height : 384 pixels
    Display aspect ratio : 1.85:1
    Frame rate : 29.970 fps
    Color space : YUV
    Chroma subsampling : 4:2:0
    Bit depth : 8 bits
    Scan type : Progressive
    Compression mode : Lossy
    Bits/(Pixel*Frame) : 0.205
    Stream size : 1.47 GiB (89%)
    Writing library : XviD 1.2.1 (UTC 2008-12-04)
    ID : 1
    Format : AC-3
    Format/Info : Audio Coding 3
    Mode extension : CM (complete main)
    Format settings, Endianness : Big
    Codec ID : 2000
    Duration : 2h 4mn
    Bit rate mode : Constant
    Bit rate : 192 Kbps
    Channel(s) : 2 channels
    Channel positions : Front: L R
    Sampling rate : 48.0 KHz
    Compression mode : Lossy
    Stream size : 170 MiB (10%)
    Alignment : Split accross interleaves
    Interleave, duration : 33 ms (1.00 video frame)
    Interleave, preload duratio : 500 ms


    Oтсутствует какая-либо реклама
    Download .torrent

    Download free and at maximum speed!

    How to Download? · What is a torrent? · Ratings and Limitations

    The site does not extend and does not store electronic(digital) versions of products, and only gives access to a reference catalogue created by users on torrent-files which contain only lists of the hash-sums, the earnest entreaty, with complaints(abuse) to access directly to the user. Files for an exchange on tracker are given by users of a site, and the administration does not bear the responsibility for their maintenance. The request to not fill in the files protected by copyrights, and also files of the illegal maintenance!

    [Profile] [PM]
    Display posts from previous:    
    Reply to topic

    The time now is: Today 18:48

    All times are GMT + 3 Hours

    You cannot post new topics in this forum
    You cannot reply to topics in this forum
    You cannot edit your posts in this forum
    You cannot delete your posts in this forum
    You cannot vote in polls in this forum
    You cannot attach files in this forum
    You cannot download files in this forum