BitTorrentTracker PerecTracker.org
BitTorrentTracker PerecTracker.org
    
Регистрация  ·  Вход
 
 · 
Забыли пароль?

  • Шерлок: Безобразная невеста / Sherlock: The Abominable Bride (Дуглас Маккиннон / Douglas Mackinnon) [2016, Великобритания, детектив, HDTV 1080i] Dub (Первый канал)

    Ответить на тему
     
    Автор Сообщение

    rechyn

    Создавать темы 02-Янв-2016 17:38

           

    [Цитировать]

    Шерлок: Безобразная невеста / Sherlock: The Abominable Bride
    Страна: Великобритания
    Студия: Hartswood Films, BBC Wales, Masterpiece Theatre
    Жанр: детектив
    Год выпуска: 2016
    Продолжительность: 01:28:25
    Перевод: Профессиональный (дублированный) Первый канал
    Cубтитры: нет
    Оригинальная аудиодорожка: нет
    Режиссер: Дуглас Маккиннон / Douglas Mackinnon
    В ролях: Бенедикт Камбербэтч, Мартин Фриман, Руперт Грейвз, Уна Стаббс, Лу Брили, Аманда Аббингтон
    Описание: "Безобразная невеста" - отдельный рождественский эпизод английского сериала "Шерлок Холмс". Действие фильма происходит в 1895 году в Лондоне. К Шерлоку за помощью обращается некий Томас Риколетти. Он увидел свою жену в старом свадебном платье и очень удивился. А вскоре узнал, что она покончила с собой всего за несколько часов до этой странной встречи. Получается, что он видел призрак жены и, что еще хуже, теперь призрак миссис Риколетти бродит по улицам не в силах утолить жажду мести. Перемещаясь от скрытой в тумане станции "Лаймхаус" до развалин старой церкви Холмс, Ватсон и их друзья должны проявить свои лучшие качества в схватке с врагом, на первый взгляд связанным с потусторонними силами, чтобы узнать шокирующую правду о безобразной невесте!
    Ссылка на предыдущие и альтернативные раздачи http://perectracker.org/tracker.php?&a...Abominable.Bride
    Сэмпл: http://multi-up.com/1082110
    Тип релиза: HDTV 1080i
    Контейнер: TS
    Видео: AVC, 1920 x 1080 (1.778) at 25.000 fps, 7447 Кбит/сек
    Аудио: AC-3, 6 каналов, 48,0 КГц, 384 Кбит/сек - русский
    Аудио 2: MPEG Audio, 192 Кбит/сек, 2 канала, 48,0 КГц - русский

    MediaInfo

    Общее
    Идентификатор : 1 (0x1)
    Полное имя : E:\RECORD\Sherlock.The Abominable Bride.2016.HDTV 1080i.Doc66.ts
    Формат : MPEG-TS
    Размер файла : 5,22 Гбайт
    Продолжительность : 1 ч. 28 м.
    Режим общего битрейта : Переменный
    Общий поток : 8447 Кбит/сек
    Видео
    Идентификатор : 305 (0x131)
    Идентификатор меню : 20105 (0x4E89)
    Формат : AVC
    Формат/Информация : Advanced Video Codec
    Профиль формата : Main@L4
    Параметр CABAC формата : Да
    Параметр ReFrames формата : 4 кадра
    Идентификатор кодека : 27
    Продолжительность : 1 ч. 28 м.
    Битрейт : 7447 Кбит/сек
    Ширина : 1920 пикселей
    Высота : 1080 пикселей
    Соотношение сторон : 16:9
    Частота кадров : 25,000 кадров/сек
    Стандарт вещания : Component
    Цветовое пространство : YUV
    Субдискретизация насыщенности : 4:2:0
    Битовая глубина : 8 бит
    Тип развёртки : Чересстрочная
    Порядок развёртки : Верхнее поле первое
    Бит/(Пиксели*Кадры) : 0.144
    Размер потока : 4,60 Гбайт (88%)
    Цветовой диапазон : Limited
    Основные цвета : BT.709
    Характеристики трансфера : BT.709
    Коэффициенты матрицы : BT.709
    Аудио #1
    Идентификатор : 405 (0x195)
    Идентификатор меню : 20105 (0x4E89)
    Формат : AC-3
    Формат/Информация : Audio Coding 3
    Расширение режима : CM (complete main)
    Параметр Endianness формата : Big
    Идентификатор кодека : 6
    Продолжительность : 1 ч. 28 м.
    Вид битрейта : Постоянный
    Битрейт : 384 Кбит/сек
    Каналы : 6 каналов
    Расположение каналов : Front: L C R, Side: L R, LFE
    Частота : 48,0 КГц
    Метод сжатия : С потерями
    Задержка видео : -40 мс.
    Размер потока : 243 Мбайт (5%)
    Язык : Russian
    Аудио #2
    Идентификатор : 406 (0x196)
    Идентификатор меню : 20105 (0x4E89)
    Формат : MPEG Audio
    Версия формата : Version 1
    Профиль формата : Layer 2
    Идентификатор кодека : 3
    Продолжительность : 1 ч. 28 м.
    Вид битрейта : Постоянный
    Битрейт : 192 Кбит/сек
    Каналы : 2 канала
    Частота : 48,0 КГц
    Метод сжатия : С потерями
    Задержка видео : -40 мс.
    Размер потока : 121 Мбайт (2%)
    Язык : Russian
    Текст
    Идентификатор : 407 (0x197)-888
    Идентификатор меню : 20105 (0x4E89)
    Формат : Teletext Subtitle
    Язык : Russian
    Меню
    Идентификатор : 205 (0xCD)
    Идентификатор меню : 20105 (0x4E89)
    Продолжительность : 1 ч. 28 м.
    Список : 305 (0x131) (AVC) / 405 (0x195) (AC-3, Russian) / 406 (0x196) (MPEG Audio, Russian) / 407 (0x197) ()
    Язык : / Russian / Russian

    Скриншоты

    Скачать .torrent

    Скачать торрент-файл бесплатно и на максимальной скорости!

    Как скачивать? · Что такое торрент? · Рейтинг и ограничения

    !ВНИМАНИЕ!
    Сайт не распространяет и не хранит электронные версии произведений, а занимается лишь лишь предоставлением доступа к создаваемому пользователями каталогу ссылок на торрент-файлы, которые содержат только списки хеш-сумм, убедительная просьба с жалобами обращаться напрямую к пользователю. Файлы для обмена на трекере предоставлены пользователями сайта, и администрация не несёт ответственности за их содержание. Просьба не заливать файлы, защищенные авторскими правами, а также файлы нелегального содержания!


    _________________
    [Профиль] [ЛС]

    rechyn ®

    Создавать темы 02-Янв-2016 17:39 (спустя 1 минута)

           

    [Цитировать]

    Релиз на поглощение Этой раздачи

    _________________
    [Профиль] [ЛС]
    Показать сообщения:    
    Ответить на тему

    Текущее время: Сегодня, в 22:26

    Часовой пояс: GMT + 2



    Вы не можете начинать темы
    Вы не можете отвечать на сообщения
    Вы не можете редактировать свои сообщения
    Вы не можете удалять свои сообщения
    Вы не можете голосовать в опросах
    Вы не можете прикреплять файлы к сообщениям
    Вы не можете скачивать файлы