BitTorrentTracker PerecTracker.org
BitTorrentTracker PerecTracker.org
    
Регистрация  ·  Вход
 
 · 
Забыли пароль?

  • Застрял в любви / Stuck in Love (Джош Бун / Josh Boone) [2012, США, драма, мелодрама, комедия, HDRip] MVO (TV1000 Comedy HD) + Original Eng

    Ответить на тему
     
    Автор Сообщение

    rechyn

    Создавать темы 02-Янв-2016 13:57

           

    [Цитировать]

    Застрял в любви / Stuck in Love
    Страна: США
    Жанр: драма, мелодрама, комедия
    Год выпуска: 2012
    Продолжительность: 01:36:52
    Перевод: Профессиональный (многоголосый закадровый) TV1000 Comedy HD
    Cубтитры: нет
    Оригинальная аудиодорожка: английский
    Режиссер: Джош Бун / Josh Boone
    В ролях: Грег Киннер, Дженнифер Коннелли, Лили Коллинз, Нат Вулф, Кристен Белл, Логан Лерман, Лиана Либерато, Майкл Гудвин, Стивен Кинг, Расти Джойнер ...
    Описание: Сюжет фильма сосредоточен на запутанных отношениях между известным новеллистом Биллом Борджес, его бывшей женой и их детьми — дочерью-студенткой Самантой и сыном-тинейджером.
    Доп. информация: На ТВ показали сокращенную версию. В пропущенные места сделаны вставки с любительской озвучкой Rg Victory Films. Русская дорожка весьма невысокого качества, поэтому битрейта 256 ей даже слишком будет.
    Сэмпл: http://multi-up.com/1082101
    Качество видео: HDRip
    Формат видео: AVI
    Видео: MPEG4, XviD, 720x400 (16:9), 23.976 fps, 1 432 Kbps (0.207 bit/pixel)
    Аудио: AC-3, 48.0 KHz, 6 ch, 256 Kbps, CBR - русский
    Аудио 2: AC-3, 48.0 KHz, 6 ch, 448 Kbps, CBR - английский

    MediaInfo

    Общее
    Полное имя : N:\Застрял в любви.avi
    Формат : AVI
    Формат/Информация : Audio Video Interleave
    Размер файла : 1,46 Гбайт
    Продолжительность : 1 ч. 36 м.
    Общий поток : 2150 Кбит/сек
    Название фильма : Застрял в любви / Stuck in Love (2012)
    Программа кодирования : VirtualDubMod 1.5.10.2 (build 2540/release)
    Библиотека кодирования : VirtualDubMod build 2540/release
    Авторское право : miha2154
    Видео
    Идентификатор : 0
    Формат : MPEG-4 Visual
    Профиль формата : Advanced Simple@L5
    Параметр BVOP формата : 1
    Параметр QPel формата : Нет
    Параметр GMC формата : Без точки перехода
    Параметр матрицы формата : Выборочная
    Идентификатор кодека : XVID
    Идентификатор кодека/Подсказка : XviD
    Продолжительность : 1 ч. 36 м.
    Битрейт : 1432 Кбит/сек
    Ширина : 720 пикселей
    Высота : 400 пикселей
    Соотношение сторон : 16:9
    Частота кадров : 23,976 (24000/1001) кадра/сек
    Цветовое пространство : YUV
    Субдискретизация насыщенности : 4:2:0
    Битовая глубина : 8 бит
    Тип развёртки : Прогрессивная
    Метод сжатия : С потерями
    Бит/(Пиксели*Кадры) : 0.207
    Размер потока : 992 Мбайт (67%)
    Библиотека кодирования : XviD 65
    Аудио #1
    Идентификатор : 1
    Формат : AC-3
    Формат/Информация : Audio Coding 3
    Расширение режима : CM (complete main)
    Параметр Endianness формата : Big
    Идентификатор кодека : 2000
    Продолжительность : 1 ч. 36 м.
    Вид битрейта : Постоянный
    Битрейт : 256 Кбит/сек
    Каналы : 6 каналов
    Расположение каналов : Front: L C R, Side: L R, LFE
    Частота : 48,0 КГц
    Частота кадров : 31,250 кадров/сек (1536 spf)
    Метод сжатия : С потерями
    Размер потока : 177 Мбайт (12%)
    Выравнивание : Разделение по промежуткам
    Продолжительность промежутка : 42 мс. (1,00 видеокадр)
    Время предзагрузки промежутка : 500 мс.
    Заголовок : Профессиональный (многоголосый закадровый) TV1000 Comedy HD
    Аудио #2
    Идентификатор : 2
    Формат : AC-3
    Формат/Информация : Audio Coding 3
    Расширение режима : CM (complete main)
    Параметр Endianness формата : Big
    Идентификатор кодека : 2000
    Продолжительность : 1 ч. 36 м.
    Вид битрейта : Постоянный
    Битрейт : 448 Кбит/сек
    Каналы : 6 каналов
    Расположение каналов : Front: L C R, Side: L R, LFE
    Частота : 48,0 КГц
    Частота кадров : 31,250 кадров/сек (1536 spf)
    Метод сжатия : С потерями
    Размер потока : 310 Мбайт (21%)
    Выравнивание : Разделение по промежуткам
    Продолжительность промежутка : 42 мс. (1,00 видеокадр)
    Время предзагрузки промежутка : 500 мс.
    Заголовок : Английский

    Скриншоты


    Скачать .torrent

    Скачать торрент-файл бесплатно и на максимальной скорости!

    Как скачивать? · Что такое торрент? · Рейтинг и ограничения

    !ВНИМАНИЕ!
    Сайт не распространяет и не хранит электронные версии произведений, а занимается лишь лишь предоставлением доступа к создаваемому пользователями каталогу ссылок на торрент-файлы, которые содержат только списки хеш-сумм, убедительная просьба с жалобами обращаться напрямую к пользователю. Файлы для обмена на трекере предоставлены пользователями сайта, и администрация не несёт ответственности за их содержание. Просьба не заливать файлы, защищенные авторскими правами, а также файлы нелегального содержания!


    _________________
    [Профиль] [ЛС]
    Показать сообщения:    
    Ответить на тему

    Текущее время: Сегодня, в 08:59

    Часовой пояс: GMT + 2



    Вы не можете начинать темы
    Вы не можете отвечать на сообщения
    Вы не можете редактировать свои сообщения
    Вы не можете удалять свои сообщения
    Вы не можете голосовать в опросах
    Вы не можете прикреплять файлы к сообщениям
    Вы не можете скачивать файлы