BitTorrentTracker PerecTracker.org
BitTorrentTracker PerecTracker.org
    
Регистрация  ·  Вход
 
 · 
Забыли пароль?

  • Шерлок: Безобразная невеста / Sherlock: The Abominable Bride / Новогодний спецвыпуск (Дуглас Макиннон) [2016, триллер, драма, криминал, детектив, HDTV 1080i] Dub (Первый канал)

    Ответить на тему
     
    Автор Сообщение

    rechyn

    Создавать темы 02-Янв-2016 10:15

           

    [Цитировать]

    -Шерлок / SherlockНовогодний спецвыпуск: Безобразная невеста--Год выпуска: 2016
    Страна: Великобритания
    Жанр: триллер, драма, криминал, детектив
    Продолжительность: 01:28:28
    Перевод: Профессиональный (дублированный) [Первый канал]
    Субтитры: русские (телетекст)-Режиссёр: Дуглас Макиннон
    В ролях: Бенедикт Камбербэтч, Мартин Фриман, Уна Стаббс, Руперт Грейвз, Марк Гатисс, Эндрю Скотт и другие-Описание: "Безобразная невеста" - отдельный рождественский эпизод английского сериала "Шерлок Холмс". Действие фильма происходит в 1895 году в Лондоне. К Шерлоку за помощью обращается некий Томас Риколетти. Он увидел свою жену в старом свадебном платье и очень удивился. А вскоре узнал, что она покончила с собой всего за несколько часов до этой странной встречи. Получается, что он видел призрак жены и, что еще хуже, теперь призрак миссис Риколетти бродит по улицам не в силах утолить жажду мести. Перемещаясь от скрытой в тумане станции "Лаймхаус" до развалин старой церкви Холмс, Ватсон и их друзья должны проявить свои лучшие качества в схватке с врагом, на первый взгляд связанным с потусторонними силами, чтобы узнать шокирующую правду о безобразной невесте!-[ Все раздачи сериала ] | [ Сэмпл ]-Качество: HDTV 1080i
    Формат: TS
    Видео кодек: H.264
    Аудио кодек: AC3, MP2
    Видео: H.264, 1920x1080, 25.000 fps, ~ 5 Mbps, 0.098 bit/pixel
    Аудио 1: AC3, 48 kHz, 6 ch, 384 kbps [Русский, Первый канал]
    Аудио 2: MP2, 48 kHz, 2 ch, 224 kbps [Русский, Первый канал]
    -

    MI

    General
    ID : 1 (0x1)
    Complete name : Sherlock.2016.HDTV.1080i.ts
    Format : MPEG-TS
    File size : 3.70 GiB
    Duration : 1h 28mn
    Overall bit rate mode : Variable
    Overall bit rate : 5 983 Kbps
    Video
    ID : 1902 (0x76E)
    Menu ID : 92 (0x5C)
    Format : AVC
    Format/Info : Advanced Video Codec
    Format profile : High@L4.0
    Format settings, CABAC : Yes
    Format settings, ReFrames : 3 frames
    Codec ID : 27
    Duration : 1h 28mn
    Bit rate : 5 073 Kbps
    Width : 1 920 pixels
    Height : 1 080 pixels
    Display aspect ratio : 16:9
    Frame rate : 25.000 fps
    Standard : Component
    Color space : YUV
    Chroma subsampling : 4:2:0
    Bit depth : 8 bits
    Scan type : Interlaced
    Scan order : Top Field First
    Bits/(Pixel*Frame) : 0.098
    Stream size : 3.14 GiB (85%)
    Color primaries : BT.709
    Transfer characteristics : BT.709
    Matrix coefficients : BT.709
    Audio #1
    ID : 2902 (0xB56)
    Menu ID : 92 (0x5C)
    Format : AC-3
    Format/Info : Audio Coding 3
    Mode extension : CM (complete main)
    Format settings, Endianness : Big
    Codec ID : 6
    Duration : 1h 28mn
    Bit rate mode : Constant
    Bit rate : 384 Kbps
    Channel(s) : 6 channels
    Channel positions : Front: L C R, Side: L R, LFE
    Sampling rate : 48.0 KHz
    Bit depth : 16 bits
    Compression mode : Lossy
    Delay relative to video : -120ms
    Stream size : 243 MiB (6%)
    Language : Russian
    Audio #2
    ID : 2903 (0xB57)
    Menu ID : 92 (0x5C)
    Format : MPEG Audio
    Format version : Version 1
    Format profile : Layer 2
    Codec ID : 3
    Duration : 1h 28mn
    Bit rate mode : Constant
    Bit rate : 224 Kbps
    Channel(s) : 2 channels
    Sampling rate : 48.0 KHz
    Compression mode : Lossy
    Delay relative to video : -120ms
    Stream size : 142 MiB (4%)
    Language : Russian
    Text
    ID : 2904 (0xB58)-888
    Menu ID : 92 (0x5C)
    Format : Teletext Subtitle
    Language : Russian
    Menu
    ID : 902 (0x386)
    Menu ID : 92 (0x5C)
    Duration : 1h 28mn
    List : 1902 (0x76E) (AVC) / 2902 (0xB56) (AC-3, Russian) / 2903 (0xB57) (MPEG Audio, Russian) / 2904 (0xB58) ()
    Language : / Russian / Russian
    -
    Скачать .torrent

    Скачать торрент-файл бесплатно и на максимальной скорости!

    Как скачивать? · Что такое торрент? · Рейтинг и ограничения

    !ВНИМАНИЕ!
    Сайт не распространяет и не хранит электронные версии произведений, а занимается лишь лишь предоставлением доступа к создаваемому пользователями каталогу ссылок на торрент-файлы, которые содержат только списки хеш-сумм, убедительная просьба с жалобами обращаться напрямую к пользователю. Файлы для обмена на трекере предоставлены пользователями сайта, и администрация не несёт ответственности за их содержание. Просьба не заливать файлы, защищенные авторскими правами, а также файлы нелегального содержания!


    _________________
    [Профиль] [ЛС]
    Показать сообщения:    
    Ответить на тему

    Текущее время: Сегодня, в 16:29

    Часовой пояс: GMT + 2



    Вы не можете начинать темы
    Вы не можете отвечать на сообщения
    Вы не можете редактировать свои сообщения
    Вы не можете удалять свои сообщения
    Вы не можете голосовать в опросах
    Вы не можете прикреплять файлы к сообщениям
    Вы не можете скачивать файлы