BitTorrentTracker PerecTracker.org
BitTorrentTracker PerecTracker.org
    
Регистрация  ·  Вход
 
 · 
Забыли пароль?

  • Барбекю / Barbecue (Эрик Лавэн / Eric Lavaine) [2014, Франция, комедия, BDRip] Dub (SDI media)

    Ответить на тему
     
    Автор Сообщение

    rechyn

    Создавать темы 02-Янв-2016 01:42

           

    [Цитировать]

    Барбекю / Barbecue
    Страна: Франция
    Жанр: комедия
    Год выпуска: 2014
    Продолжительность: 01:37:48
    Перевод: Профессиональный (дублированный) SDI media
    Cубтитры: нет
    Режиссер: Эрик Лавэн / Eric Lavaine
    В ролях: Ламбер Вильсон, Франк Дюбоск, Флоренс Форести, Гийом де Тонкедек, Лионель Абелански, Жером Коммандёр, Софи Дюэз, Лисиан Мейс, Валери Крузе, Лукас Лавэн
    Описание: Несмотря на то, что всю жизнь Антуан следил за своим здоровьем, на его пятидесятилетие у него случается инфаркт. Все врачи говорят, что теперь ему нужно быть более осторожным. Но ведь он и так всегда был острожным! Он решает, что ему нужна встряска, и намерен поменять свою жизнь кардинальным образом.
    Доп. информация:
    Качество видео: BDRip | kozzloh/BDRemux 1080p
    Формат видео: AVI
    Видео: 720x384 (1.88:1), 24.000 fps, XviD build 73 ~1945 kbps avg, 0.29 bit/pixel
    Аудио: 48 kHz, AC3 Dolby Digital, 2/0 (L,R) ch, ~192 kbps

    MediaInfo

    General
    Complete name : C:\Users\User\Desktop\RuTracker\Barbecue.2014.BDRip.Dub_by_LBS.avi
    Format : AVI
    Format/Info : Audio Video Interleave
    File size : 1.47 GiB
    Duration : 1h 37mn
    Overall bit rate : 2 147 Kbps
    Director : Last Boy Scout
    Writing application : VirtualDubMod 1.5.10.3 | www.virtualdub-fr.org || (build 2550/release)
    Copyright : perectracker.org 31.12.2015
    Comment : BDRip Dub
    Video
    ID : 0
    Format : MPEG-4 Visual
    Format profile : Advanced Simple@L5
    Format settings, BVOP : 1
    Format settings, QPel : No
    Format settings, GMC : No warppoints
    Format settings, Matrix : Custom
    Codec ID : XVID
    Codec ID/Hint : XviD
    Duration : 1h 37mn
    Bit rate : 1 946 Kbps
    Width : 720 pixels
    Height : 384 pixels
    Display aspect ratio : 1.85:1
    Frame rate : 24.000 fps
    Color space : YUV
    Chroma subsampling : 4:2:0
    Bit depth : 8 bits
    Scan type : Progressive
    Compression mode : Lossy
    Bits/(Pixel*Frame) : 0.293
    Stream size : 1.33 GiB (91%)
    Writing library : XviD 73
    Audio
    ID : 1
    Format : AC-3
    Format/Info : Audio Coding 3
    Mode extension : CM (complete main)
    Format settings, Endianness : Big
    Codec ID : 2000
    Duration : 1h 37mn
    Bit rate mode : Constant
    Bit rate : 192 Kbps
    Channel(s) : 2 channels
    Channel positions : Front: L R
    Sampling rate : 48.0 KHz
    Bit depth : 16 bits
    Compression mode : Lossy
    Stream size : 134 MiB (9%)
    Alignment : Split accross interleaves
    Interleave, duration : 42 ms (1.00 video frame)
    Interleave, preload duration : 500 ms

    Скриншоты


    -
    Скачать .torrent

    Скачать торрент-файл бесплатно и на максимальной скорости!

    Как скачивать? · Что такое торрент? · Рейтинг и ограничения

    !ВНИМАНИЕ!
    Сайт не распространяет и не хранит электронные версии произведений, а занимается лишь лишь предоставлением доступа к создаваемому пользователями каталогу ссылок на торрент-файлы, которые содержат только списки хеш-сумм, убедительная просьба с жалобами обращаться напрямую к пользователю. Файлы для обмена на трекере предоставлены пользователями сайта, и администрация не несёт ответственности за их содержание. Просьба не заливать файлы, защищенные авторскими правами, а также файлы нелегального содержания!


    _________________
    [Профиль] [ЛС]
    Показать сообщения:    
    Ответить на тему

    Текущее время: Сегодня, в 09:05

    Часовой пояс: GMT + 2



    Вы не можете начинать темы
    Вы не можете отвечать на сообщения
    Вы не можете редактировать свои сообщения
    Вы не можете удалять свои сообщения
    Вы не можете голосовать в опросах
    Вы не можете прикреплять файлы к сообщениям
    Вы не можете скачивать файлы