BitTorrentTracker PerecTracker.org
BitTorrentTracker PerecTracker.org
    
Регистрация  ·  Вход
 
 · 
Забыли пароль?

  • Легенды Ретро FM 2015 (Санкт-Петербург) [2016, Pop, DVB]

    Ответить на тему
     
    Автор Сообщение

    rechyn

    Создавать темы 01-Янв-2016 23:37

           

    [Цитировать]

    Легенды Ретро FM 2015 (Санкт-Петербург)Эфир 01.01.2016 годаСтрана: Россия
    Жанр: Pop
    Продолжительность: 02:02:14
    Год выпуска: 2016
    Описание: Наступление Нового, 2016 года Пятый канал приглашает отметить в компании самых популярных исполнителей 70х, 80х и 90х. Сразу после речи Президента в эфире начнется трансляция международного фестиваля «Легенды Ретро FM», который недавно состоялся в Санкт-Петербурге и собрал на одной сцене звезд сразу нескольких поколений. Среди них – Юрий Антонов, Sandra, Юрий Шатунов, Riccardo Fogli, Игорь Николаев, Ottawan, Вадим Казаченко, Baccara, Технология и многие другие.
    Качество: DVB
    Контейнер: TS
    Видео кодек: H.264
    Аудио кодек: MP2
    Видео: AVC/H.264, 720x576 (4:3), 25.00fps, 2612 Kbps
    Аудио: Mp2, 48000Hz, 2ch, 192 Kbps

    Треклист

    01. Юрий Антонов - Я вспоминаю
    02. Е Type - Russian Luttaby
    03. Юрий Шатунов - Белые розы
    04. Ottawan - Hands Up
    05. Наталья Гулькина - Дискотека
    06. Bad Boys Blue - You`re A Woman
    07. Игорь Николаев - Незнакомка
    08. Ottawan - D.I.S.C.O
    09. Юрий Антонов - Если любишь ты
    10. Sandra - In The Heat Of The Night
    11. Юрий Шатунов - Седая ночь
    12. Riccardo Fogli и Вадим Казаченко - Storie Di Tutti i Giorni
    13. Е Type - Angels Crying
    14. Юрий Антонов - Дорога к морю
    15. Bad Boys Blue - Come Bask And Stay
    16. Игорь Николаев - Комарово
    17. Sandra - Maria Magdalena
    18. Верасы - Малиновка
    19. Юрий Шатунов - Глупые снежинки
    20. Baccara - Sorry, I`m a Lady
    21. Технология - Нажми на кнопку
    22. Bad Boys Blue - Pretty Young Girl
    23. Вадим Казаченко - Прощай навеки, последняя любовь
    24. Baccara - Yes, Sir, I Can Boogie
    25. Игорь Николаев - Выпьем за любовь
    26. Sandra - Secret Land
    27. Технология - Странные танцы
    28. Bad Boys Blue - I Wanna Hear Your Heartbeat
    29. Е Type - Here I Go Again
    30. Юрий Шатунов - Лето

    MediaInfo

    Общее
    Идентификатор : 1 (0x1)
    Полное имя : C:\Users\User\Desktop\Легенды Ретро FM 2015 (Санкт-Петербург).ts
    Формат : MPEG-TS
    Размер файла : 2,52 Гбайт
    Продолжительность : 2 ч. 2 м.
    Режим общего битрейта : Переменный
    Общий поток : 2952 Кбит/сек
    Видео
    Идентификатор : 1051 (0x41B)
    Идентификатор меню : 1 (0x1)
    Формат : AVC
    Формат/Информация : Advanced Video Codec
    Профиль формата : Main@L3.0
    Параметр CABAC формата : Да
    Параметр ReFrames формата : 3 кадра
    Параметр GOP формата : M=4, N=28
    Идентификатор кодека : 27
    Продолжительность : 2 ч. 2 м.
    Битрейт : 2612 Кбит/сек
    Ширина : 720 пикселей
    Высота : 576 пикселей
    Соотношение сторон : 4:3
    Частота кадров : 25,000 кадров/сек
    Стандарт вещания : Component
    Цветовое пространство : YUV
    Субдискретизация насыщенности : 4:2:0
    Битовая глубина : 8 бит
    Тип развёртки : Чересстрочная
    Порядок развёртки : Верхнее поле первое
    Бит/(Пиксели*Кадры) : 0.252
    Размер потока : 2,23 Гбайт (88%)
    Основные цвета : BT.601 PAL
    Характеристики трансфера : BT.470 System B, BT.470 System G
    Коэффициенты матрицы : BT.601
    colour_range : Limited
    Аудио
    Идентификатор : 1052 (0x41C)
    Идентификатор меню : 1 (0x1)
    Формат : MPEG Audio
    Версия формата : Version 1
    Профиль формата : Layer 2
    Идентификатор кодека : 3
    Продолжительность : 2 ч. 2 м.
    Вид битрейта : Постоянный
    Битрейт : 192 Кбит/сек
    Каналы : 2 канала
    Частота : 48,0 КГц
    Метод сжатия : С потерями
    Размер потока : 168 Мбайт (7%)

    Скриншоты

    Скачать .torrent

    Скачать торрент-файл бесплатно и на максимальной скорости!

    Как скачивать? · Что такое торрент? · Рейтинг и ограничения

    !ВНИМАНИЕ!
    Сайт не распространяет и не хранит электронные версии произведений, а занимается лишь лишь предоставлением доступа к создаваемому пользователями каталогу ссылок на торрент-файлы, которые содержат только списки хеш-сумм, убедительная просьба с жалобами обращаться напрямую к пользователю. Файлы для обмена на трекере предоставлены пользователями сайта, и администрация не несёт ответственности за их содержание. Просьба не заливать файлы, защищенные авторскими правами, а также файлы нелегального содержания!


    _________________
    [Профиль] [ЛС]
    Показать сообщения:    
    Ответить на тему

    Текущее время: Сегодня, в 21:51

    Часовой пояс: GMT + 2



    Вы не можете начинать темы
    Вы не можете отвечать на сообщения
    Вы не можете редактировать свои сообщения
    Вы не можете удалять свои сообщения
    Вы не можете голосовать в опросах
    Вы не можете прикреплять файлы к сообщениям
    Вы не можете скачивать файлы