BitTorrentTracker PerecTracker.org
BitTorrentTracker PerecTracker.org
    
Регистрация  ·  Вход
 
 · 
Забыли пароль?

  • Новогодняя дискотека 80-х 2015-2016.01.01 НТВ-HD [2016, Pop, HDTV 1080i]

    Ответить на тему
     
    Автор Сообщение

    rechyn

    Создавать темы 01-Янв-2016 23:35

           

    [Цитировать]

    Новогодняя дискотека 80-х (2015 - 2016.01.01) НТВ-HD
    Жанр: Pop
    Продолжительность: 03:17:41
    Год выпуска: 2016
    Описание: "Дискотека 80-х" - яркое и захватывающее шоу, ультрасовременная сценография, оригинальные творческие находки и, конечно же, незабываемая встреча с кумирами.

    Треклист

    01. Сергей Минаев - Братец Луи
    02. Владимир Маркин - Белая Черемуха
    03. Samantha Fox - Touch Me
    04. Samantha Fox - Hot Stuff
    05. Samantha Fox - Nothing's Gonna Stop Me Now
    06. Кар-Мэн - Чио-Чио-Сан
    07. Кар-Мэн - Лондон, Гудбай
    08. Михаил Боярский и Марта Кибкало - Зеленоглазое такси
    09. Вячеслав Добрынин - Мегамикс
    10. Любэ - Батька Махно
    11. Любэ - Любимый Мой Дворик
    12. Любэ - Не Валяй Дурака (что бы это значило? ;D ;D ;D)
    13. Boney M - Bahama Mama
    14. Boney M - Daddy Cool
    15. Boney M - Rasputin
    16. Дюна - Страна Лимония
    17. Дюна - Привет C Большого Бодуна
    18. C.C.Catch - I Can Lose My Heart Tonight
    19. C.C.Catch - Heaven and Hell
    20. C.C.Catch - Megamix
    21. Ricchi E Poveri - Sara Perce Ti Amo
    22. Ricchi E Poveri - Venezia
    23. Ricchi E Poveri - Made In Italy
    24. Вячеслав Бутусов и группа Ю-Питер - Скованные одной цепью
    25. Вячеслав Бутусов и группа Ю-Питер - Звезда По Имени Солнце
    26. Вячеслав Бутусов и группа Ю-Питер - Гудбай, Америка
    27. F.R.David - Girl
    28. F.R.David - Words
    29. Самоцветы - Всё, Что В Жизни Есть У Меня
    30. Самоцветы - Мой Адрес - Советский Союз
    31. Joy - Valerie
    32. Joy - Japanese Girls
    33. Joy - Touch By Touch
    34. Земляне - Мегамикс
    35. Сладкий сон - На белом покрывале января
    36. Barrabas - Dolores
    37. Крематорий - Мусорный ветер
    38. Secret Service - L.A. Goodbye
    39. Secret Service - Flash In The Night
    40. Secret Service - Ten O’Clock Postman
    41. Андрей Державин - Чужая Свадьба
    42.Savage - Only You
    43. Savage - Don't Cry Tonight
    44. Savage – Goodbye
    45. Технология - Нажми На Кнопку
    46. Комиссар - Ты Уйдешь
    47. Chris De Burgh - Moonlight And Vodka
    48. Chris De Burgh - Missing You
    49. Chris De Burgh - Don't Pay The Ferryman
    50. Chris De Burgh - Lady In Red
    Качество: HDTV 1080i
    Контейнер: TS
    Видео кодек: H.264
    Аудио кодек: MP2
    Видео: H264; 1920x1080 (16:9); 25.000 fps; ~13500 Kbps
    Аудио: MPEG Audio Version 1 Layer 2, 48000Hz, 2 channels stereo 192 Кбит/сек

    Отчёт MediaInfo / BDInfo

    General
    ID : 1 (0x1)
    Complete name : J:1\Новогодняя дискотека 80-х 2015-2016.01.01 НТВ-HD.ts
    Format : MPEG-TS
    File size : 19.9 GiB
    Duration : 3h 17mn
    Overall bit rate mode : Variable
    Overall bit rate : 14.4 Mbps
    Video
    ID : 201 (0xC9)
    Menu ID : 2201 (0x899)
    Format : AVC
    Format/Info : Advanced Video Codec
    Format profile : Main@L4.0
    Format settings, CABAC : Yes
    Format settings, ReFrames : 4 frames
    Codec ID : 27
    Duration : 3h 17mn
    Bit rate : 13.5 Mbps
    Width : 1 920 pixels
    Height : 1 080 pixels
    Display aspect ratio : 16:9
    Frame rate : 25.000 fps
    Standard : Component
    Color space : YUV
    Chroma subsampling : 4:2:0
    Bit depth : 8 bits
    Scan type : Interlaced
    Bits/(Pixel*Frame) : 0.261
    Stream size : 18.7 GiB (94%)
    Color primaries : BT.709
    Transfer characteristics : BT.709
    Matrix coefficients : BT.709
    Audio
    ID : 301 (0x12D)
    Menu ID : 2201 (0x899)
    Format : MPEG Audio
    Format version : Version 1
    Format profile : Layer 2
    Codec ID : 3
    Duration : 3h 17mn
    Bit rate mode : Constant
    Bit rate : 192 Kbps
    Channel(s) : 2 channels
    Sampling rate : 48.0 KHz
    Compression mode : Lossy
    Stream size : 271 MiB (1%)
    Language : det

    Скриншоты



    Скачать .torrent

    Скачать торрент-файл бесплатно и на максимальной скорости!

    Как скачивать? · Что такое торрент? · Рейтинг и ограничения

    !ВНИМАНИЕ!
    Сайт не распространяет и не хранит электронные версии произведений, а занимается лишь лишь предоставлением доступа к создаваемому пользователями каталогу ссылок на торрент-файлы, которые содержат только списки хеш-сумм, убедительная просьба с жалобами обращаться напрямую к пользователю. Файлы для обмена на трекере предоставлены пользователями сайта, и администрация не несёт ответственности за их содержание. Просьба не заливать файлы, защищенные авторскими правами, а также файлы нелегального содержания!


    _________________
    [Профиль] [ЛС]
    Показать сообщения:    
    Ответить на тему

    Текущее время: Сегодня, в 23:15

    Часовой пояс: GMT + 2



    Вы не можете начинать темы
    Вы не можете отвечать на сообщения
    Вы не можете редактировать свои сообщения
    Вы не можете удалять свои сообщения
    Вы не можете голосовать в опросах
    Вы не можете прикреплять файлы к сообщениям
    Вы не можете скачивать файлы