BitTorrentTracker PerecTracker.org
BitTorrentTracker PerecTracker.org
    
Регистрация  ·  Вход
 
 · 
Забыли пароль?

  • Мост / Bron / Broen / The Bridge / Сезон: 3 / Серии: 1-10 из 10 (Хенрик Георгссон, Шарлотта Зилинг, Кэтрин Уиндфельд) [2015, триллер, криминал, детектив, HDRip] MVO (Amedia)

    Ответить на тему
     
    Автор Сообщение

    rechyn

    Создавать темы 01-Янв-2016 23:07

           

    [Цитировать]

    -Мост | Bron | Broen | The Bridge--Год выпуска: 2013
    Страна: Швеция, Дания
    Жанр: триллер, криминал, детектив
    Продолжительность: ~ 00:57:00-Перевод: Профессиональный (многоголосый закадровый) | Amedia
    Режиссёр: Хенрик Георгссон, Шарлотта Зилинг, Кэтрин Уиндфельд-В ролях: София Хелин, Ким Бодния, Даг Малмберг, Эмиль Бирк Хартманн, Рафаэль Петтерссон, Кристина Бранден, Сара Боберг, Магнус Креппер, Кристиан Лима де Фариа, Магнус Шмитц, Эллен Хиллингсо, Ларс Симонсен, Йорген Торссон, Оле Бойсен-Описание:Долгожданное продолжение датско-шведского сериала «Мост»! После событий второго сезона прошло полгода, и Саге Норен вместе с коллегами предстоит раскрыть новое дело. Совершено убийство датчанки Хелле Анкер, которая была директором гендерно нейтральной школы — первого подобного заведения в стране. Третий сезон, окрашенный в более мрачные тона, поставит героиню перед новыми трудностями: ей придется знакомиться с новыми людьми, вести запутанное расследование, но что самое страшное для нее — посмотреть в глаза своему прошлому, от которого она тщательно пыталась отгородиться.--| Ссылка на предыдущие и альтернативные раздачи-Качество: HDRip
    Контейнер: AVI
    Видео: XviD, 720x400 (16:9), 25 fps, ~1600 kbps
    Аудио 1: AC3, 48 kHz, 2 ch, 192 kbps, CBR - Rus
    Субтитры: отсутствуют-

    Релиз

    рип qqss44
    исходник Black_Scorpion_666
    роли озвучивали: Людмила Шувалова, Елена Харитонова, Марина Бакина, Михаил Тихонов, Андрей Бархударов, Кирилл Туранский.
    перевод: Наталья Боде

    MediaInfo

    Общее
    Общее
    Формат                                   : AVI
    Формат/Информация                        : Audio Video Interleave
    Размер файла                             : 759 Мбайт
    Продолжительность                        : 58 м.
    Общий поток                              : 1815 Кбит/сек
    Программа кодирования                    : VirtualDubMod 1.5.10.3 | www.virtualdub-fr.org || (build 2550/release)
    Библиотека кодирования                   : VirtualDubMod build 2550/release
    Видео
    Идентификатор                            : 0
    Формат                                   : MPEG-4 Visual
    Профиль формата                          : Advanced Simple@L5
    Параметр BVOP формата                    : 2
    Параметр QPel формата                    : Нет
    Параметр GMC формата                     : Без точки перехода
    Параметр матрицы формата                 : Default (MPEG)
    Идентификатор кодека                     : XVID
    Идентификатор кодека/Подсказка           : XviD
    Продолжительность                        : 58 м.
    Битрейт                                  : 1613 Кбит/сек
    Ширина                                   : 720 пикселей
    Высота                                   : 400 пикселей
    Соотношение сторон                       : 16:9
    Частота кадров                           : 25,000 кадров/сек
    Цветовое пространство                    : YUV
    Субдискретизация насыщенности            : 4:2:0
    Битовая глубина                          : 8 бит
    Тип развёртки                            : Прогрессивная
    Метод сжатия                             : С потерями
    Бит/(Пиксели*Кадры)                      : 0.224
    Размер потока                            : 675 Мбайт (89%)
    Библиотека кодирования                   : XviD 73
    Аудио
    Идентификатор                            : 1
    Формат                                   : AC-3
    Формат/Информация                        : Audio Coding 3
    Расширение режима                        : CM (complete main)
    Параметр Endianness формата              : Big
    Идентификатор кодека                     : 2000
    Продолжительность                        : 58 м.
    Вид битрейта                             : Постоянный
    Битрейт                                  : 192 Кбит/сек
    Каналы                                   : 2 канала
    Расположение каналов                     : Front: L R
    Частота                                  : 48,0 КГц
    Метод сжатия                             : С потерями
    Размер потока                            : 80,3 Мбайт (11%)
    Выравнивание                             : Разделение по промежуткам
    Продолжительность промежутка             : 40  мс. (1,00 видеокадр)
    Время предзагрузки промежутка            : 500  мс.

    Скриншоты

    Скачать .torrent

    Скачать торрент-файл бесплатно и на максимальной скорости!

    Как скачивать? · Что такое торрент? · Рейтинг и ограничения

    !ВНИМАНИЕ!
    Сайт не распространяет и не хранит электронные версии произведений, а занимается лишь лишь предоставлением доступа к создаваемому пользователями каталогу ссылок на торрент-файлы, которые содержат только списки хеш-сумм, убедительная просьба с жалобами обращаться напрямую к пользователю. Файлы для обмена на трекере предоставлены пользователями сайта, и администрация не несёт ответственности за их содержание. Просьба не заливать файлы, защищенные авторскими правами, а также файлы нелегального содержания!


    _________________
    [Профиль] [ЛС]
    Показать сообщения:    
    Ответить на тему

    Текущее время: Сегодня, в 22:33

    Часовой пояс: GMT + 2



    Вы не можете начинать темы
    Вы не можете отвечать на сообщения
    Вы не можете редактировать свои сообщения
    Вы не можете удалять свои сообщения
    Вы не можете голосовать в опросах
    Вы не можете прикреплять файлы к сообщениям
    Вы не можете скачивать файлы