BitTorrentTracker PerecTracker.org
BitTorrentTracker PerecTracker.org
    
Регистрация  ·  Вход
 
 · 
Забыли пароль?

  • Пэн: Путешествие в Нетландию в 3Д / Pan 3D (Джо Райт / Joe Wright) [2015, Фэнтези, Приключения, Семейный, BDrip-AVC] iTunes, Half OverUnder / Вертикальная анаморфная стереопара

    Ответить на тему
     
    Автор Сообщение

    rechyn

    Создавать темы 01-Янв-2016 23:01

           

    [Цитировать]

    -Пэн: Путешествие в Нетландию
    Pan

    «У каждой легенды есть своё начало»
    -Год выпуска: 2015
    Страна: США, Великобритания, Австралия (Warner Bros. Pictures, RatPac-Dune Entertainment)
    Жанр: Фэнтези, Приключения, Семейный
    Продолжительность: 01:51:32
    Перевод: Профессиональный дублированный - iTunes
    Режиссер: Джо Райт / Joe Wright-Роли исполняли:

    Чёрная Борода - Хью Джекман
    Peter - Леви Миллер
    Крюк - Гаррет Хедлунд
    Тигровая Лилия - Руни Мара
    Sam Smiegel - Адиль Ахтар
    Bishop - Нонсо Анози
    Mary - Аманда Сайфред
    Mother Barnabas - Кэти Бёрк
    Nibs - Льюис МакДугалл
    Русалки - Кара Делевинь
    Kwahu - Тхэ-чжу На
    -Описание: История о сироте, который попал в волшебную Нетландию, где его поджидали опасные приключения. Там он понял, что его судьба — стать героем, который навсегда останется известен под именем Питер Пэн.-Премьера: 20 сентября 2015 (8 октября 2015)
    Бюджет: 0 000 000
    Кассовые сборы: 4 937 715

    ..
    -Качество: BDRip (by Ash61)
    Контейнер: MKV
    Формат 3D: Half OverUnder / Вертикальная анаморфная стереопара
    Порядок ракурсов: левый ракурс первый-Видео: AVC / 23,976 fps / 1920х1080p / 11.6 Mbps
    Аудио:
    #1 - Русский / AC3 / 48 KHz / 5.1 ch / 384 Kbps (Дубляж - iTunes)
    #2 - Украинский / AC3 / 48 KHz / 2 ch / 192 Kbps (Дубляж - iTunes)
    #3 - Английский / AC3 / 48 KHz / 5.1 ch / 640 Kbps (Original - BD 3D)
    Субтитры (SRT):
    Вшитые (softsub):
    #1 - Русские Форсированные (включены по умолчанию)
    #2 - Русские Полные
    #3 - Украинские Форсированные
    #4 - English Full
    #5 - English SDH
    Внешние (UTF-8):
    #1 - Русские Форсированные (включены по умолчанию)
    #2 - Украинские Форсированные

    MediaInfo

    General
    Unique ID : 191449523925913216006832581394169228097 (0x9007D64BF9266BF7A353721FE2666B41)
    Complete name : E:\Pan(2015)3D-halfOU(Ash61)iTunes\Pan(2015)3D-halfOU(Ash61)iTunes.mkv
    Format : Matroska
    Format version : Version 2
    File size : 10.2 GiB
    Duration : 1h 51mn
    Overall bit rate : 13.1 Mbps
    Movie name : Пэн: Путешествие в Нетландию / Pan (2015) в 3Д
    Encoded date : UTC 2016-01-01 10:19:14
    Writing application : mkvmerge v5.8.0 ('No Sleep / Pillow') built on Sep 2 2012 15:37:04
    Writing library : libebml v1.2.3 + libmatroska v1.3.0
    Video
    ID : 1
    Format : AVC
    Format/Info : Advanced Video Codec
    Format profile : High@L4.1
    Format settings, CABAC : Yes
    Format settings, ReFrames : 4 frames
    Codec ID : V_MPEG4/ISO/AVC
    Duration : 1h 51mn
    Bit rate : 11.6 Mbps
    Width : 1 920 pixels
    Height : 1 080 pixels
    Display aspect ratio : 16:9
    Frame rate mode : Constant
    Frame rate : 23.976 fps
    Color space : YUV
    Chroma subsampling : 4:2:0
    Bit depth : 8 bits
    Scan type : Progressive
    Bits/(Pixel*Frame) : 0.233
    Stream size : 9.03 GiB (89%)
    Title : BDRip by Ash61
    Writing library : x264 core 146 r2538 121396c
    Encoding settings : cabac=1 / ref=4 / deblock=1:-3:-3 / analyse=0x3:0x113 / me=umh / subme=10 / psy=1 / psy_rd=1.00:0.00 / mixed_ref=1 / me_range=32 / chroma_me=1 / trellis=2 / 8x8dct=1 / cqm=0 / deadzone=21,11 / fast_pskip=1 / chroma_qp_offset=-2 / threads=12 / lookahead_threads=2 / sliced_threads=0 / nr=0 / decimate=1 / interlaced=0 / bluray_compat=0 / constrained_intra=0 / bframes=9 / b_pyramid=2 / b_adapt=2 / b_bias=0 / direct=3 / weightb=1 / open_gop=0 / weightp=2 / keyint=250 / keyint_min=23 / scenecut=40 / intra_refresh=0 / rc_lookahead=60 / rc=crf / mbtree=1 / crf=16.0 / qcomp=0.70 / qpmin=0 / qpmax=69 / qpstep=4 / vbv_maxrate=40000 / vbv_bufsize=30000 / crf_max=0.0 / nal_hrd=none / filler=0 / frame-packing=4 / ip_ratio=1.40 / aq=1:0.70
    Language : English
    Default : Yes
    Forced : No
    Audio #1
    ID : 2
    Format : AC-3
    Format/Info : Audio Coding 3
    Mode extension : CM (complete main)
    Format settings, Endianness : Big
    Codec ID : A_AC3
    Duration : 1h 51mn
    Bit rate mode : Constant
    Bit rate : 384 Kbps
    Channel(s) : 6 channels
    Channel positions : Front: L C R, Side: L R, LFE
    Sampling rate : 48.0 KHz
    Bit depth : 16 bits
    Compression mode : Lossy
    Stream size : 306 MiB (3%)
    Title : Дубляж - iTunes
    Language : Russian
    Default : Yes
    Forced : No
    Audio #2
    ID : 3
    Format : AC-3
    Format/Info : Audio Coding 3
    Format profile : Dolby Digital
    Mode extension : CM (complete main)
    Format settings, Endianness : Big
    Codec ID : A_AC3
    Duration : 1h 51mn
    Bit rate mode : Constant
    Bit rate : 192 Kbps
    Channel(s) : 2 channels
    Channel positions : Front: L R
    Sampling rate : 48.0 KHz
    Bit depth : 16 bits
    Compression mode : Lossy
    Stream size : 153 MiB (1%)
    Title : Дубляж - iTunes
    Language : Ukrainian
    Default : No
    Forced : No
    Audio #3
    ID : 4
    Format : AC-3
    Format/Info : Audio Coding 3
    Mode extension : CM (complete main)
    Format settings, Endianness : Big
    Codec ID : A_AC3
    Duration : 1h 51mn
    Bit rate mode : Constant
    Bit rate : 640 Kbps
    Channel(s) : 6 channels
    Channel positions : Front: L C R, Side: L R, LFE
    Sampling rate : 48.0 KHz
    Bit depth : 16 bits
    Compression mode : Lossy
    Stream size : 511 MiB (5%)
    Title : Original BD 3D
    Language : English
    Default : No
    Forced : No
    Text #1
    ID : 5
    Format : UTF-8
    Codec ID : S_TEXT/UTF8
    Codec ID/Info : UTF-8 Plain Text
    Title : Форсированные
    Language : Russian
    Default : Yes
    Forced : No
    Text #2
    ID : 6
    Format : UTF-8
    Codec ID : S_TEXT/UTF8
    Codec ID/Info : UTF-8 Plain Text
    Title : Полные
    Language : Russian
    Default : No
    Forced : No
    Text #3
    ID : 7
    Format : UTF-8
    Codec ID : S_TEXT/UTF8
    Codec ID/Info : UTF-8 Plain Text
    Title : Форсированные
    Language : Ukrainian
    Default : No
    Forced : No
    Text #4
    ID : 8
    Format : UTF-8
    Codec ID : S_TEXT/UTF8
    Codec ID/Info : UTF-8 Plain Text
    Title : Full
    Language : English
    Default : No
    Forced : No
    Text #5
    ID : 9
    Format : UTF-8
    Codec ID : S_TEXT/UTF8
    Codec ID/Info : UTF-8 Plain Text
    Title : SDH
    Language : English
    Default : No
    Forced : No
    Menu
    00:00:00.000 : :1
    00:10:28.419 : :2
    00:19:45.851 : :3
    00:31:07.282 : :4
    00:39:14.060 : :5
    00:48:27.863 : :6
    01:00:07.562 : :7
    01:09:29.374 : :8
    01:20:12.808 : :9
    01:30:02.897 : :10
    01:39:51.027 : :11
    01:43:05.888 : :12

    Скриншоты

    Для оценки 3Д - Анимированные скрины















    Знаете ли вы, что...

    На роль Тигровой Лилии рассматривались Лупита Нионго, Адель Экзаркопулос, Пуджа Хегде и Девери Джейкобс. В конечном итоге роль получила Руни Мара.
    Сценарий фильма был в «Черном списке» лучших неспродюсированных сценариев 2013 года.
    Роль Чёрной Бороды предлагалась Хавьеру Бардему.
    Чтобы найти исполнителя главной роли, создатели фильма просмотрели несколько тысяч мальчиков в Великобритании, США, Канаде и Австралии, прежде чем они нашли Леви Миллера. Интересно, что Миллер сыграл Питера Пэна ещё в 5-летнем возрасте на театральной сцене, за что был удостоен премии.
    Первоначально композитором фильма должен был стать Дарио Марианелли, однако в итоге его заменил Джон Пауэлл.
    Скачать .torrent

    Скачать торрент-файл бесплатно и на максимальной скорости!

    Как скачивать? · Что такое торрент? · Рейтинг и ограничения

    !ВНИМАНИЕ!
    Сайт не распространяет и не хранит электронные версии произведений, а занимается лишь лишь предоставлением доступа к создаваемому пользователями каталогу ссылок на торрент-файлы, которые содержат только списки хеш-сумм, убедительная просьба с жалобами обращаться напрямую к пользователю. Файлы для обмена на трекере предоставлены пользователями сайта, и администрация не несёт ответственности за их содержание. Просьба не заливать файлы, защищенные авторскими правами, а также файлы нелегального содержания!


    _________________
    [Профиль] [ЛС]
    Показать сообщения:    
    Ответить на тему

    Текущее время: Сегодня, в 04:10

    Часовой пояс: GMT + 2



    Вы не можете начинать темы
    Вы не можете отвечать на сообщения
    Вы не можете редактировать свои сообщения
    Вы не можете удалять свои сообщения
    Вы не можете голосовать в опросах
    Вы не можете прикреплять файлы к сообщениям
    Вы не можете скачивать файлы