BitTorrentTracker PerecTracker.org
BitTorrentTracker PerecTracker.org
    
Регистрация  ·  Вход
 
 · 
Забыли пароль?

  • Поверь в мечту! Новогодний огонек (Эфир 31.12.2015 - 01.01.2016) [2016, Pop, SATRip]

    Ответить на тему
     
    Автор Сообщение

    rechyn

    Создавать темы 01-Янв-2016 22:28

           

    [Цитировать]

    Поверь в мечту! Новогодний огонек
    Дата/Год выпуска: 2016
    Страна: Украина
    Жанр: Pop
    Продолжительность: 02:56:24
    Перевод: Не требуется
    Русские субтитры: нет
    Телеканал: Iнтер/Iнтер+Описание: 31 декабря телеканал "Интер" подарит своим зрителям настоящий праздник - новогодний огонек "Поверь в мечту!" Популярные украинские исполнители, любимые актеры и известные телеведущие станут героями невероятной новогодней истории, в финале которой каждый сможет осуществить свою мечту. Ведь новогодняя ночь – время исполнения самых заветных желаний!
    По сюжету огонька, чудаковатый ученый-изобретатель (Михаил Ефремов) создает удивительный аппарат, который исполняет мечты. Накануне Нового года он решает испытать его, и в результате научного эксперимента весь город остается без электричества! Поэтому жителям приходится выйти на улицу и отмечать праздник прямо во дворе.
    В уютном зимнем дворике за одним большим праздничным столом собираются очень разные люди: управдом Ольга Сумская, продавщица сладостей Надежда Мейхер, автомеханик Дядя Жора, поэт Дмитрий Лаленков, моряк дальнего плаванья Андрей Доманский с женой Василисой Фроловой и многочисленными детьми.
    На огонек к дружным соседям заглянут звездные гости - София Ротару, Ирина Билык, Наталья Могилевская, Александр Пономарев, Таисия Повалий, Ани Лорак, Светлана Лобода, Виталий Козловский, Злата Огневич, Виктор Павлик, Ольга Полякова, Андрей Кравчук, Наталья Бучинская, Алена Винницкая, Мария Яремчук, Макс Барских, Мила Нитич, Сергей Гладырь, Светлана Тарабарова, группы "Авиатор", "Время и Стекло" и другие украинские артисты.
    В такой веселой компании герои новогоднего огонька "Поверь в мечту!" и встретят наступление Нового 2016 года. Будет много шуток и веселья, поздравлений и любимых песен, большинство из которых прозвучат в неожиданном исполнении. И, конечно же, волшебная ночь не обойдется без неожиданных перевоплощений, счастливых случайных встреч и музыкальных премьер. А самое главное - благодаря эксперименту ученого-испытателя мечты большинства участников новогодней истории действительно исполнятся!

    Треклист

    1. Михаил Ефремов - Разговор со счастьем
    2. София Ротару - Любовь жива
    3. Наталья Гордиенко - Не бойтесь жизнь переменить
    4. Сергей Гладырь - Если у вас нету тещи
    5. Loboda - Пора домой
    6. Оля Полякова - Любовь и бедность
    7. Таисия Повалий - Запалала
    8. Андрей Доманский - Рыба моей мечты
    9. Светлана тарабарова - Замечательный сосед
    10. Мила Нитич - Рюмка водки на столе
    11. Александр Пономарев - З Новим роком
    12. Злата Огневич - Woman in Love
    13. Виталий Козловский - Одиночество
    14. Виктор Павлик и Ольга Цибульская - Taka Takata
    15. Kadnay - 100 друзей
    16. El Кравчук - Tous Les Memes
    17. Авиатор - Поверь в мечту
    18. Ани Лорак - Ветер перемен
    19. Анастасия Даугуле, Роман Кадемин, Андрей Доманский, Василиса Фролова, Анатолий Бондаренко, Жанна Тихонова, Ирина Юсупова, Андрей Данилевич - Хорошее настроение
    20. София Ротару - Не забывай меня
    21. Loboda - К черту любовь
    22. Надежда Грановская - Помоги мне
    23. Наталья Могилевская - Актриса
    24. TIK - Гуляй народ
    25. Ани Лорак - Осенняя любовь
    26. Оля Полякова - Первое лето без него
    27. Иван Березовский - Прекрасная Оксана
    27. Детский коллектив продюсерского центра "Paradiz" - Новогодняя
    28. Макс Барских - Снегом стать
    29. Ярослава - Magic Symphony
    30. Время и Стекло - Имя 505
    31. Никита Алексеев - Пьяное солнце
    32. Мила Нитич - Спросите у осени
    33. Ирина Билык - А мне все пофиг
    34. Мария Яремчук - Голая
    35. Real 0 - Чумачечая зима
    36. Наталья Бучинская - Новогодняя
    37. Алена Винницкая - Улыбайся
    38. Владимир Дорош - Звенит январская вьюга
    39. Ольга Ракицкая и группа #МОЙГОРОД - До скорой встречи
    Сэмпл: https://www.sendspace.com/file/2u0mt5
    качество: SATRip
    формат: AVI
    Видео: Xvid 704x400 (16:9) ~1536kbps 25fps
    Аудио: MP3 192kbps 48000Hz stereo

    MediaInfo

    General
    Complete name : J:\Мои раздачи\Поверь в мечту.avi
    Format : AVI
    Format/Info : Audio Video Interleave
    Format profile : OpenDML
    File size : 2.14 GiB
    Duration : 2h 56mn
    Overall bit rate : 1 739 Kbps
    Video
    ID : 0
    Format : MPEG-4 Visual
    Format profile : Advanced Simple@L5
    Format settings, BVOP : Yes
    Format settings, QPel : No
    Format settings, GMC : No warppoints
    Format settings, Matrix : Default (H.263)
    Codec ID : XVID
    Codec ID/Hint : XviD
    Duration : 2h 56mn
    Bit rate : 1 535 Kbps
    Width : 704 pixels
    Height : 400 pixels
    Display aspect ratio : 16:9
    Frame rate : 25.000 fps
    Color space : YUV
    Chroma subsampling : 4:2:0
    Bit depth : 8 bits
    Scan type : Progressive
    Compression mode : Lossy
    Bits/(Pixel*Frame) : 0.218
    Stream size : 1.89 GiB (88%)
    Writing library : XviD 64
    Audio
    ID : 1
    Format : MPEG Audio
    Format version : Version 1
    Format profile : Layer 3
    Mode : Joint stereo
    Codec ID : 55
    Codec ID/Hint : MP3
    Duration : 2h 56mn
    Bit rate mode : Constant
    Bit rate : 192 Kbps
    Channel(s) : 2 channels
    Sampling rate : 48.0 KHz
    Compression mode : Lossy
    Stream size : 242 MiB (11%)
    Alignment : Split accross interleaves
    Interleave, duration : 40 ms (1.00 video frame)
    Interleave, preload duration : 500 ms

    Скриншоты

    Скачать .torrent

    Скачать торрент-файл бесплатно и на максимальной скорости!

    Как скачивать? · Что такое торрент? · Рейтинг и ограничения

    !ВНИМАНИЕ!
    Сайт не распространяет и не хранит электронные версии произведений, а занимается лишь лишь предоставлением доступа к создаваемому пользователями каталогу ссылок на торрент-файлы, которые содержат только списки хеш-сумм, убедительная просьба с жалобами обращаться напрямую к пользователю. Файлы для обмена на трекере предоставлены пользователями сайта, и администрация не несёт ответственности за их содержание. Просьба не заливать файлы, защищенные авторскими правами, а также файлы нелегального содержания!


    _________________
    [Профиль] [ЛС]
    Показать сообщения:    
    Ответить на тему

    Текущее время: Сегодня, в 23:11

    Часовой пояс: GMT + 2



    Вы не можете начинать темы
    Вы не можете отвечать на сообщения
    Вы не можете редактировать свои сообщения
    Вы не можете удалять свои сообщения
    Вы не можете голосовать в опросах
    Вы не можете прикреплять файлы к сообщениям
    Вы не можете скачивать файлы