BitTorrentTracker PerecTracker.org
BitTorrentTracker PerecTracker.org
    
Регистрация  ·  Вход
 
 · 
Забыли пароль?

  • Пэн: Путешествие в Нетландию / Pan (Джо Райт / Joe Wright) [2015, США, Великобритания, Австралия, фэнтези, приключения, семейный, BDRip] Dub

    Ответить на тему
     
    Автор Сообщение

    Light

    Создавать темы 01-Янв-2016 13:30

           

    [Цитировать]

    Пэн: Путешествие в Нетландию / Pan
    Страна: США, Великобритания, Австралия
    Жанр: фэнтези, приключения, семейный
    Год выпуска: 2015
    Продолжительность: 01:51:32
    Перевод: Профессиональный (дублированный)
    Cубтитры: нет
    Режиссер: Джо Райт / Joe Wright
    В ролях: Хью Джекман, Леви Миллер, Гаррет Хедлунд, Руни Мара, Адиль Ахтар, Нонсо Анози, Аманда Сайфред, Кэти Бёрк, Льюис МакДугалл, Кара Делевинь, Тхэ-чжу На, Джек Чарльз, Бронсон Уэбб, Майк Шеперд, Брайан Бовелл, Курт Эгиаван, Джимми Ви, Пол Хантер, Спенсер Уидлинг, Дин Нолан
    Описание: История о сироте, который попал в волшебную Нетландию, где его поджидали опасные приключения. Там он понял, что его судьба — стать героем, который навсегда останется известен под именем Питер Пэн.
    Сэмпл: http://multi-up.com/1081979
    Качество видео: BDRip [BDRemux | 1080p | Кинозал]
    Формат видео: AVI
    Видео: 688x288 (2.39:1), 23.976 fps, XviD build 73 ~802 kbps avg, 0.17 bit/pixel
    Аудио: 48 kHz, MPEG Layer 3, 2 ch, ~128.00 kbps avg

    MediaInfo

    Формат : AVI
    Формат/Информация : Audio Video Interleave
    Размер файла : 750 Мбайт
    Продолжительность : 1 ч. 51 м.
    Общий поток : 940 Кбит/сек
    Программа кодирования : VirtualDubMod 1.5.10.3 | www.virtualdub-fr.org || (build 2550/release)
    Библиотека кодирования : VirtualDubMod build 2550/release
    Видео
    Идентификатор : 0
    Формат : MPEG-4 Visual
    Профиль формата : Advanced Simple@L5
    Параметр BVOP формата : 1
    Параметр QPel формата : Нет
    Параметр GMC формата : Без точки перехода
    Параметр матрицы формата : Выборочная
    Идентификатор кодека : XVID
    Идентификатор кодека/Подсказка : XviD
    Продолжительность : 1 ч. 51 м.
    Битрейт : 802 Кбит/сек
    Ширина : 688 пикселей
    Высота : 288 пикселей
    Соотношение сторон : 2,40:1
    Частота кадров : 23,976 (23976/1000) кадра/сек
    Цветовое пространство : YUV
    Субдискретизация насыщенности : 4:2:0
    Битовая глубина : 8 бит
    Тип развёртки : Прогрессивная
    Метод сжатия : С потерями
    Бит/(Пиксели*Кадры) : 0.169
    Размер потока : 640 Мбайт (85%)
    Библиотека кодирования : XviD 73
    Аудио
    Идентификатор : 1
    Формат : MPEG Audio
    Версия формата : Version 1
    Профиль формата : Layer 3
    Идентификатор кодека : 55
    Идентификатор кодека/Подсказка : MP3
    Продолжительность : 1 ч. 51 м.
    Вид битрейта : Постоянный
    Битрейт : 128 Кбит/сек
    Каналы : 2 канала
    Частота : 48,0 КГц
    Метод сжатия : С потерями
    Размер потока : 102 Мбайт (14%)
    Выравнивание : Соединение по промежуткам
    Продолжительность промежутка : 42 мс. (1,00 видеокадр)
    Время предзагрузки промежутка : 504 мс.
    Библиотека кодирования : LAME3.99r
    Настройки программы : -m s -V 4 -q 2 -lowpass 17 -b 128

    Скриншоты

    Скачать .torrent

    Скачать торрент-файл бесплатно и на максимальной скорости!

    Как скачивать? · Что такое торрент? · Рейтинг и ограничения

    !ВНИМАНИЕ!
    Сайт не распространяет и не хранит электронные версии произведений, а занимается лишь лишь предоставлением доступа к создаваемому пользователями каталогу ссылок на торрент-файлы, которые содержат только списки хеш-сумм, убедительная просьба с жалобами обращаться напрямую к пользователю. Файлы для обмена на трекере предоставлены пользователями сайта, и администрация не несёт ответственности за их содержание. Просьба не заливать файлы, защищенные авторскими правами, а также файлы нелегального содержания!


    _________________
    [Профиль] [ЛС]
    Показать сообщения:    
    Ответить на тему

    Текущее время: Сегодня, в 09:56

    Часовой пояс: GMT + 2



    Вы не можете начинать темы
    Вы не можете отвечать на сообщения
    Вы не можете редактировать свои сообщения
    Вы не можете удалять свои сообщения
    Вы не можете голосовать в опросах
    Вы не можете прикреплять файлы к сообщениям
    Вы не можете скачивать файлы