BitTorrentTracker PerecTracker.org
BitTorrentTracker PerecTracker.org
    
Регистрация  ·  Вход
 
 · 
Забыли пароль?

  • Эверест / Everest (Бальтасар Кормакур / Baltasar Kormakur) [2015, США, Великобритания, Исландия, триллер, драма, приключения, биография, история, BDRip] Dub + Sub Rus, Eng, Ukr

    Ответить на тему
     
    Автор Сообщение

    Light

    Создавать темы 01-Янв-2016 13:30

           

    [Цитировать]

    --Эверест / Everest--«Самое опасное место на планете»-Страна: США, Великобритания, Исландия
    Жанр: триллер, драма, приключения, биография, история
    Год выпуска: 2015
    Продолжительность: 02:01:10-Перевод: Профессиональный (дублированный) CEE
    Cубтитры: русские (полные, форсированные), английские (обычные, SDH), украинские
    Режиссер: Бальтасар Кормакур / Baltasar Kormákur-В ролях: Джейсон Кларк (Rob Hall), Джош Бролин (Beck Weathers), Джейк Джилленхол (Scott Fischer), Сэм Уортингтон (Guy Cotter), Джон Хоукс (Doug Hansen), Майкл Келли (Jon Krakauer), Ингвар Эггерт Сигюрдссон (Anatoli Boukreev), Кира Найтли (Jan Arnold), Эмили Уотсон (Helen Wilton), Робин Райт (Peach Weathers), Мартин Хендерсон (Andy «Harold» Harris), Элизабет Дебики (Caroline Mackenzie)
    Описание: Эверест — великая неприступная гора, покорить вершину которой мечтают многие профессиональные альпинисты. Одна из экспедиций на ее вершину закончилась настоящей трагедией, однако этот факт не останавливает отважных альпинистов.
    Опытный инструктор Роб Холл, собрав группу из лучших альпинистов, собирается совершить восхождение на самую высокую вершину планеты. Все эти люди полны мужества и отваги и они не остановятся ни перед чем, пока не поднимутся на вершину Эвереста. Но даже если эта гора покорится им, смогут ли они вернуться обратно живыми и невредимыми?..-| Сэмпл | IMDB | КиноПоиск |

    Автор рипа: yaroslaigor
    Качество видео: BDRip (источник)
    Формат видео: AVI
    Видео: 720x304 (2.37:1), 23.976 fps, XviD build 65 ~2123 kbps avg, 0.40 bit/pixel
    Аудио: 48 kHz, AC3 Dolby Digital, 3/2 (L,C,R,l,r) + LFE ch, ~448 kbps avg

    MediaInfo

    General
    Полное имя : D:\MOVIES\Everest.2015.RUS.BDRip.XviD.AC3.-HQCLUB\Everest.2015.RUS.BDRip.XviD.AC3.-HQCLUB.avi
    Формат : AVI
    Формат/Информация : Audio Video Interleave
    Профиль формата : OpenDML
    Размер файла : 2.18 GiB
    Продолжительность : 2h 1mn
    Общий поток : 2 579 Kbps
    Название фильма : Эверест / Everest (2015) BDRip
    Жанр : драма, приключения
    Программа кодирования : VirtualDubMod 1.5.10.2 (build 2542/release)
    Примечание : 31.12.2015
    Video
    Идентификатор : 0
    Формат : MPEG-4 Visual
    Профиль формата : Advanced Simple@L5
    Параметр BVOP формата : 1
    Параметр QPel формата : No
    Параметр GMC формата : No warppoints
    Параметр матрицы формата : Custom
    Идентификатор кодека : XVID
    Идентификатор кодека/Подсказка : XviD
    Продолжительность : 2h 1mn
    Битрейт : 2 119 Kbps
    Ширина : 720 pixels
    Высота : 304 pixels
    Соотношение сторон : 2.35:1
    Частота кадров : 23.976 fps
    Цветовое пространство : YUV
    Субдискретизация насыщенности : 4:2:0
    Битовая глубина : 8 bits
    Тип развёртки : Progressive
    Метод сжатия : Lossy
    Бит/(Пиксели*Кадры) : 0.404
    Размер потока : 1.79 GiB (82%)
    Библиотека кодирования : XviD 65
    Audio
    Идентификатор : 1
    Формат : AC-3
    Формат/Информация : Audio Coding 3
    Расширение режима : CM (complete main)
    Параметр Endianness формата : Big
    Идентификатор кодека : 2000
    Продолжительность : 2h 1mn
    Вид битрейта : Constant
    Битрейт : 448 Kbps
    Каналы : 6 channels
    Расположение каналов : Front: L C R, Side: L R, LFE
    Частота : 48.0 KHz
    Метод сжатия : Lossy
    Размер потока : 388 MiB (17%)
    Выравнивание : Split accross interleaves
    Продолжительность промежутка : 42 ms (1.00 video frame)
    Время предзагрузки промежутка : 500 ms

    Скриншот c названием фильма

    Скриншоты

    ---
    Скачать .torrent

    Скачать торрент-файл бесплатно и на максимальной скорости!

    Как скачивать? · Что такое торрент? · Рейтинг и ограничения

    !ВНИМАНИЕ!
    Сайт не распространяет и не хранит электронные версии произведений, а занимается лишь лишь предоставлением доступа к создаваемому пользователями каталогу ссылок на торрент-файлы, которые содержат только списки хеш-сумм, убедительная просьба с жалобами обращаться напрямую к пользователю. Файлы для обмена на трекере предоставлены пользователями сайта, и администрация не несёт ответственности за их содержание. Просьба не заливать файлы, защищенные авторскими правами, а также файлы нелегального содержания!


    _________________
    [Профиль] [ЛС]
    Показать сообщения:    
    Ответить на тему

    Текущее время: Сегодня, в 05:54

    Часовой пояс: GMT + 2



    Вы не можете начинать темы
    Вы не можете отвечать на сообщения
    Вы не можете редактировать свои сообщения
    Вы не можете удалять свои сообщения
    Вы не можете голосовать в опросах
    Вы не можете прикреплять файлы к сообщениям
    Вы не можете скачивать файлы