BitTorrentTracker PerecTracker.org
BitTorrentTracker PerecTracker.org
    
Регистрация  ·  Вход
 
 · 
Забыли пароль?

  • Алиса в Стране Чудес / Alice in Wonderland (Тошиюки Хирума / Toshiyuki Hiruma) [1995, США, Япония, семейный, мультфильм, сказка, DVDRip] MVO

    Ответить на тему
     
    Автор Сообщение

    rechyn

    Создавать темы 01-Янв-2016 02:56

           

    [Цитировать]

    Алиса в Стране Чудес / Alice in Wonderland
    Страна: США, Япония
    Жанр: семейный, мультфильм, сказка
    Продолжительность: 00:46:39
    Год выпуска: 1995
    Перевод: Профессиональный (многоголосый закадровый)
    Русские субтитры: нет

    Режиссёр: Тошиюки Хирума / Toshiyuki Hiruma
    Роли озвучивали: Тони Эйл, Натан Эсвелл, Чера Бэйли, Кэтлин Барр, Гари Чок, Лиллиэн Карлсон, Йен Джеймс Корлетт, Майкл Донован, Кент Галли, Фил Хэйес
    Описание: Алиса скучала, сидя под старой яблоней, пока сестра читала неинтересную книжку без картинок. Но тут она увидела большого белого кролика, одетого в куртку и жилет. Достав из кармана часы, кролик торопливо скрылся в подозрительно темной норе. Набравшись смелости, Алиса шагнула вслед за ним и... попала в чудесный сказочный мир, где сбываются самые несбыточные фантазии.
    Качество: DVDRip
    Формат: AVI
    Видео: 640x480 (1.33:1), 25 fps, XviD build 73 ~2019 kbps avg, 0.26 bit/pixel
    Аудио: 48 kHz, AC3 Dolby Digital, 2/0 (L,R) ch, ~192 kbps
    Субтитры: отсутствуют

    Подробные технические данные

    ОбщееПолное имя : H:\Alice.in.Wonderland.1995.dvdrip_[745]_[teko].aviФормат : AVIФормат/Информация : Audio Video InterleaveРазмер файла : 741 МбайтПродолжительность : 46 м.Общий поток : 2222 Кбит/секПрограмма кодирования : VirtualDubMod 1.5.10.3 | www.virtualdub-fr.org || (build 2550/release)Библиотека кодирования : VirtualDubMod build 2550/release
    ВидеоИдентификатор : 0Формат : MPEG-4 VisualПрофиль формата : Advanced Simple@L5Параметр BVOP формата : 2Параметр QPel формата : НетПараметр GMC формата : Без точки переходаПараметр матрицы формата : ВыборочнаяИдентификатор кодека : XVIDИдентификатор кодека/Подсказка : XviDПродолжительность : 46 м.Битрейт : 2020 Кбит/секШирина : 640 пикселейВысота : 480 пикселейСоотношение сторон : 4:3Частота кадров : 25,000 кадров/секЦветовое пространство : YUVСубдискретизация насыщенности : 4:2:0Битовая глубина : 8 битТип развёртки : ПрогрессивнаяМетод сжатия : С потерямиБит/(Пиксели*Кадры) : 0.263Размер потока : 674 Мбайт (91%)Библиотека кодирования : XviD 73
    АудиоИдентификатор : 1Формат : AC-3Формат/Информация : Audio Coding 3Расширение режима : CM (complete main)Параметр Endianness формата : BigИдентификатор кодека : 2000Продолжительность : 46 м.Вид битрейта : ПостоянныйБитрейт : 192 Кбит/секКаналы : 2 каналаРасположение каналов : Front: L RЧастота : 48,0 КГцБитовая глубина : 16 битМетод сжатия : С потерямиРазмер потока : 64,1 Мбайт (9%)Выравнивание : Разделение по промежуткамПродолжительность промежутка : 40 мс. (1,00 видеокадр)Время предзагрузки промежутка : 500 мс.

    Скриншоты

    Релиз группы:

    -
    -
    Скачать .torrent

    Скачать торрент-файл бесплатно и на максимальной скорости!

    Как скачивать? · Что такое торрент? · Рейтинг и ограничения

    !ВНИМАНИЕ!
    Сайт не распространяет и не хранит электронные версии произведений, а занимается лишь лишь предоставлением доступа к создаваемому пользователями каталогу ссылок на торрент-файлы, которые содержат только списки хеш-сумм, убедительная просьба с жалобами обращаться напрямую к пользователю. Файлы для обмена на трекере предоставлены пользователями сайта, и администрация не несёт ответственности за их содержание. Просьба не заливать файлы, защищенные авторскими правами, а также файлы нелегального содержания!


    _________________
    [Профиль] [ЛС]
    Показать сообщения:    
    Ответить на тему

    Текущее время: Сегодня, в 07:15

    Часовой пояс: GMT + 2



    Вы не можете начинать темы
    Вы не можете отвечать на сообщения
    Вы не можете редактировать свои сообщения
    Вы не можете удалять свои сообщения
    Вы не можете голосовать в опросах
    Вы не можете прикреплять файлы к сообщениям
    Вы не можете скачивать файлы